Рассвет нацизма. Становление Гитлера / Dawn of the Nazis: Becoming Hitler [2017, Документальный, война, история, SATRip] (Dub) скачать торрент в TAS-IX

Ответить на тему
Статистика раздачи
Размер:  692 MB   |    Зарегистрирован:  2 года 2 месяца   |    Скачан:  58 раз

Полного источника не было: 2 месяца 13 дней

 
     
 
 
 

big boss ®

Стаж: 2 года 6 месяцев

Сообщений: 770

Симпатии: 254

Рассвет нацизма. Становление Гитлера / Dawn of the Nazis: Becoming Hitler
-Год выпуска: 2017
Страна: США National Geographic
Жанр: Документальный, война, история
Продолжительность: 00:44:00-Перевод: Дублированный-Описание: Фильм «Рассвет нацистов: Становление Гитлера» исследует жизнь этого нелюдя, как он поднялся из ничего, чтобы стать пожалуй, самым известным диктатором и военным преступником в истории.
Как же он посеял семена ненависти и насилия, которые привели к гибели десятков миллионов людей? Какой была Германия накануне начала Второй мировой войны? Вы увидите отчаяние и страх, побудившие целую нацию последовать страшному призыву одного человека к мировому господству. Мы сделаем шаг назад, чтобы принять более глубокий взгляд на то, как все это началось.
Фильм целиком создан из восстановленных и раскрашенных архивных кинокадров.-Качество видео: SATRip
Формат видео: AVI-Видео: Xvid 720x400 25fps 1799kbps
Аудио #1: Dolby AC3 48000Hz stereo 192kbps
Аудио #2: Dolby AC3 48000Hz stereo 192kbps--

MediaInfo

General
Complete name : E:\загрузки\Becoming Hitler.2017.XviD.SATRip.alf62.avi
Format : AVI
Format/Info : Audio Video Interleave
File size : 692 MiB
Duration : 43 min 59 s
Overall bit rate : 2 198 kb/s
Writing application : VirtualDubModRus 1.5.10.2 (build 2542/release)
Writing library : VirtualDubMod build 2542/release
Video
ID : 0
Format : MPEG-4 Visual
Format profile : Advanced [email protected]
Format settings, BVOP : 2
Format settings, QPel : No
Format settings, GMC : No warppoints
Format settings, Matrix : Default (MPEG)
Codec ID : XVID
Codec ID/Hint : XviD
Duration : 43 min 59 s
Bit rate : 1 800 kb/s
Width : 720 pixels
Height : 400 pixels
Display aspect ratio : 16:9
Frame rate : 25.000 FPS
Color space : YUV
Chroma subsampling : 4:2:0
Bit depth : 8 bits
Scan type : Progressive
Compression mode : Lossy
Bits/(Pixel*Frame) : 0.250
Stream size : 566 MiB (82%)
Writing library : XviD 73
Audio #1
ID : 1
Format : AC-3
Format/Info : Audio Coding 3
Format settings, Endianness : Big
Codec ID : 2000
Duration : 43 min 59 s
Bit rate mode : Constant
Bit rate : 192 kb/s
Channel(s) : 2 channels
Channel positions : Front: L R
Sampling rate : 48.0 kHz
Frame rate : 31.250 FPS (1536 spf)
Bit depth : 16 bits
Compression mode : Lossy
Stream size : 60.4 MiB (9%)
Alignment : Split accross interleaves
Interleave, duration : 40 ms (1.00 video frame)
Interleave, preload duration : 500 ms
Service kind : Complete Main
Audio #2
ID : 2
Format : AC-3
Format/Info : Audio Coding 3
Format settings, Endianness : Big
Codec ID : 2000
Duration : 43 min 59 s
Bit rate mode : Constant
Bit rate : 192 kb/s
Channel(s) : 2 channels
Channel positions : Front: L R
Sampling rate : 48.0 kHz
Frame rate : 31.250 FPS (1536 spf)
Bit depth : 16 bits
Compression mode : Lossy
Stream size : 60.4 MiB (9%)
Alignment : Split accross interleaves
Interleave, duration : 40 ms (1.00 video frame)
Interleave, preload duration : 500 ms
Service kind : Complete Main

Торрент Рассвет нацизма. Становление Гитлера / Dawn of the Nazis: Becoming Hitler [2017, Документальный, война, история, SATRip] (Dub) Скачать в TAS-IX
Торрент: Зарегистрирован [ 2017-05-09 04:30 ] · 9718E96CB7D211E1D1B6CBA3D4DE8990123AA18E

Скачать .torrent

Скачать

14 KB

Статус: проверено
Скачан: 58 раз
Размер: 692 MB
 

Создавать темы 09-Май-2017 04:30

[Профиль]  [ЛС] 
Показать сообщения:    
Ответить на тему

Текущее время: 19-Июл 11:02

Часовой пояс: UTC + 5



Вы не можете начинать темы
Вы не можете отвечать на сообщения
Вы не можете редактировать свои сообщения
Вы не можете удалять свои сообщения
Вы не можете голосовать в опросах
Вы не можете прикреплять файлы к сообщениям
Вы не можете скачивать файлы