Виктор Цой и гр. "Кино" - Концерт в СКК "Олимпийский" [1990 г., Концерт, рок, SATRip-AVC] скачать торрент в TAS-IX

Ответить на тему
Статистика раздачи
Размер:  747 MB   |    Зарегистрирован:  9 месяцев 25 дней   |    Скачан:  0 раз

Полного источника не было: 9 месяцев 23 дня

 
     
 
 
 

DIMUKA79 ®

Стаж: 6 лет

Сообщений: 18

Симпатии: 11

Кино и Виктор Цой. Концерт в СКК "Олимпийский" (1990)
Страна: СССР
Жанр: Концерт, рок
Год выпуска: 1990
Продолжительность: 01:03:58
Доп. информация: Первый канал представляет запись одного из последних концертов Виктора Цоя и гр. "Кино", прошедшего 5 мая 1990 года в московском спорткомплексе "Олимпийский". Через три с половиной месяца легендарный советский рок-музыкант погиб. На сцене "Олимпийского" Цой исполнил хиты, на которых выросло целое поколение молодежи бывшего СССР конца 80-х и начала 90-х..
Качество видео: SATRip-AVC
Формат видео: MKV
Видео: MPEG-4 AVC, 688x424, ~ 1554 Кбит/с
Аудио: AAC-HE, 2 ch, ~ 76 Кбит/с

MediaInfo

Общее
Уникальный идентификатор : 190504777310298483619238016754708969636 (0x8F51E2B13F32D3DF9A11779D93B0F8A4)
Полное имя : D:MOVIESKino_.Olimpiyskiy.5.05.1990.ExKinoRay.mkv
Формат : Matroska
Версия формата : Version 4 / Version 2
Размер файла : 747 Мбайт
Продолжительность : 1 ч. 3 м.
Общий поток : 1632 Кбит/сек
Дата кодирования : UTC 2018-07-15 05:46:10
Программа кодирования : mkvmerge v15.0.0 ('Duel with the Devil') 64-bit
Библиотека кодирования : libebml v1.3.5 + libmatroska v1.4.5
Видео
Идентификатор : 1
Формат : AVC
Формат/Информация : Advanced Video Codec
Профиль формата : [email protected]
Параметр CABAC формата : Да
Параметр RefFrames формата : 14 кадров
Идентификатор кодека : V_MPEG4/ISO/AVC
Продолжительность : 1 ч. 3 м.
Битрейт : 1554 Кбит/сек
Ширина : 688 пикселей
Высота : 424 пикселя
Соотношение сторон : 16:10
Режим частоты кадров : Постоянный
Частота кадров : 25,000 кадров/сек
Цветовое пространство : YUV
Субдискретизация насыщенности : 4:2:0
Битовая глубина : 8 бит
Тип развёртки : Прогрессивная
Бит/(Пиксели*Кадры) : 0.213
Размер потока : 711 Мбайт (95%)
Библиотека кодирования : x264 core 152 r2851kMod ba24899
Настройки программы : cabac=1 / ref=14 / deblock=1:-3:-3 / analyse=0x3:0x133 / me=umh / subme=11 / psy=1 / fade_compensate=0.00 / psy_rd=1.00:0.14 / mixed_ref=1 / me_range=32 / chroma_me=1 / trellis=2 / 8x8dct=1 / cqm=0 / deadzone=21,11 / fast_pskip=0 / chroma_qp_offset=-3 / threads=6 / lookahead_threads=1 / sliced_threads=0 / nr=0 / decimate=0 / interlaced=0 / bluray_compat=0 / constrained_intra=0 / bframes=14 / b_pyramid=2 / b_adapt=2 / b_bias=0 / direct=3 / weightb=1 / open_gop=0 / weightp=2 / keyint=250 / keyint_min=24 / scenecut=40 / intra_refresh=0 / rc_lookahead=40 / rc=2pass / mbtree=1 / bitrate=1554 / ratetol=1.0 / qcomp=0.60 / qpmin=0 / qpmax=69 / qpstep=4 / cplxblur=20.0 / qblur=0.5 / vbv_maxrate=50000 / vbv_bufsize=62500 / nal_hrd=none / filler=0 / ip_ratio=1.40 / aq=3:1.00
Default : Да
Forced : Нет
Аудио
Идентификатор : 2
Формат : AAC
Формат/Информация : Advanced Audio Codec
Профиль формата : HE-AAC / LC
Идентификатор кодека : A_AAC
Продолжительность : 1 ч. 3 м.
Битрейт : 76,0 Кбит/сек
Каналы : 2 канала
Расположение каналов : Front: L R
Частота : 48,0 КГц / 24,0 КГц
Частота кадров : 23,438 кадра/сек (1024 SPF)
Метод сжатия : С потерями
Задержка видео : 31 мс.
Размер потока : 34,8 Мбайт (5%)
Default : Да
Forced : Нет

Скриншоты

Торрент Виктор Цой и гр. "Кино" - Концерт в СКК "Олимпийский" [1990 г., Концерт, рок, SATRip-AVC] Скачать в TAS-IX
Торрент: Зарегистрирован [ 2018-07-28 00:01 ] · 641314977224B6A444E9175CF79F0C672131D752

Скачать .torrent

Скачать

15 KB

Статус: проверено
Скачан: 0 раз
Размер: 747 MB
 

Создавать темы 28-Июл-2018 00:01

[Профиль]  [ЛС] 

Топик был перенесен из форума Клипы в форум Live show / Video
ruhal

Создавать темы 28-Июл-2018 05:52

 
Показать сообщения:    
Ответить на тему

Текущее время: 22-Май 15:45

Часовой пояс: UTC + 5



Вы не можете начинать темы
Вы не можете отвечать на сообщения
Вы не можете редактировать свои сообщения
Вы не можете удалять свои сообщения
Вы не можете голосовать в опросах
Вы не можете прикреплять файлы к сообщениям
Вы не можете скачивать файлы