(Score) Howard Shore - The Lord Of The Rings: The Complete Recordings [FLAC (image + .cue), lossless] скачать торрент в TAS-IX

Ответить на тему
Статистика раздачи
Размер:  3.12 GB   |    Зарегистрирован:  9 месяцев 9 дней   |    Скачан:  2 раза
Сидов:  1  [  0 KB/s  ]   Подробная статистика пиров
 
     
 
 
 

Спейшл ®

Стаж: 9 месяцев 11 дней

Сообщений: 2

Howard Shore - The Lord Of The Rings: The Complete Recordings
Жанр: Score
Композитор: Howard Shore
Год выпуска диска: 2005-2007
Год выпуска фильма: 2001-2003
Страна-производитель диска: США, Новая Зеландия-Аудиокодек: FLAC (*.flac)
Тип рипа: tracks+.cue
Битрейт аудио: lossless
Продолжительность: 09:59:07-сайт-источник/ник/другое: Waffles
Наличие сканов в содержимом раздачи: да-

2005 - The Fellowship of the Ring

CD 1

01. Prologue: One Ring To Rule Them All (7:16)
02. The Shire (2:29)
03. Bag End (4:36)
04. Very Old Friends (3:13)
05. Flaming Red Hair (2:39)
06. Farewell Dear Bilbo (1:46)
07. Keep It Secret, Keep It Safe (8:54)
08. A Conspiracy Unmasked (6:10)
09. Three Is Company (1:58)
10. The Passing Of The Elves (2:40)
11. Saruman The White (4:10)
12. A Shortcut To Mushrooms (4:07)
13. Strider (2:35)
14. The Nazgul (6:05)

Лог создания рипа

Exact Audio Copy V0.99 prebeta 5 from 4. May 2009
EAC extraction logfile from 25. November 2010, 10:15
Howard Shore / The Lord of the Rings: The Fellowship of the Ring (The Complete Recordings) [1]
Used drive : PIONEER DVD-RW DVR-115D Adapter: 0 ID: 0
Read mode : Secure
Utilize accurate stream : Yes
Defeat audio cache : Yes
Make use of C2 pointers : No
Read offset correction : 48
Overread into Lead-In and Lead-Out : No
Fill up missing offset samples with silence : Yes
Delete leading and trailing silent blocks : No
Null samples used in CRC calculations : Yes
Used interface : Native Win32 interface for Win NT & 2000
Gap handling : Appended to previous track
Used output format : User Defined Encoder
Selected bitrate : 128 kBit/s
Quality : High
Add ID3 tag : No
Command line compressor : D:\apps\wavpack\wavpack.exe
Additional command line options : -w "Artist=%a" -w "Title=%t" -w "Album=%g" -w "Year=%y" -w "Track=%n" -w "Genre=%m" -h %s %d
TOC of the extracted CD
Track | Start | Length | Start sector | End sector
---------------------------------------------------------
1 | 0:00.00 | 7:16.26 | 0 | 32725
2 | 7:16.26 | 2:29.36 | 32726 | 43936
3 | 9:45.62 | 4:35.42 | 43937 | 64603
4 | 14:21.29 | 3:12.61 | 64604 | 79064
5 | 17:34.15 | 2:39.00 | 79065 | 90989
6 | 20:13.15 | 1:45.66 | 90990 | 98930
7 | 21:59.06 | 8:53.73 | 98931 | 138978
8 | 30:53.04 | 6:09.65 | 138979 | 166718
9 | 37:02.69 | 1:58.06 | 166719 | 175574
10 | 39:01.00 | 2:39.69 | 175575 | 187568
11 | 41:40.69 | 4:09.44 | 187569 | 206287
12 | 45:50.38 | 4:07.32 | 206288 | 224844
13 | 49:57.70 | 2:34.42 | 224845 | 236436
14 | 52:32.37 | 6:04.67 | 236437 | 263803
Track 1
Filename M:\library\wavpack\Howard Shore\(2005) Howard Shore\01 - Prologue- One Ring to Rule Them All.wav
Pre-gap length 0:00:02.00
Peak level 88.3 %
Track quality 99.9 %
Test CRC 2656264C
Copy CRC 2656264C
Accurately ripped (confidence 99) [EC45C875]
Copy OK
Track 2
Filename M:\library\wavpack\Howard Shore\(2005) Howard Shore\02 - The Shire.wav
Peak level 69.3 %
Track quality 100.0 %
Test CRC 090BC059
Copy CRC 090BC059
Accurately ripped (confidence 99) [8BED71F9]
Copy OK
Track 3
Filename M:\library\wavpack\Howard Shore\(2005) Howard Shore\03 - Bag End.wav
Peak level 55.5 %
Track quality 100.0 %
Test CRC 137BAF9F
Copy CRC 137BAF9F
Accurately ripped (confidence 99) [D718F8CD]
Copy OK
Track 4
Filename M:\library\wavpack\Howard Shore\(2005) Howard Shore\04 - Very Old Friends.wav
Peak level 20.6 %
Track quality 100.0 %
Test CRC 9B36AADA
Copy CRC 9B36AADA
Accurately ripped (confidence 98) [3B3FFFC0]
Copy OK
Track 5
Filename M:\library\wavpack\Howard Shore\(2005) Howard Shore\05 - Flaming Red Hair.wav
Peak level 34.8 %
Track quality 100.0 %
Test CRC B35D5B61
Copy CRC B35D5B61
Accurately ripped (confidence 99) [C5B0CF14]
Copy OK
Track 6
Filename M:\library\wavpack\Howard Shore\(2005) Howard Shore\06 - Farewell Dear Bilbo.wav
Peak level 88.2 %
Track quality 100.0 %
Test CRC A6DF7B36
Copy CRC A6DF7B36
Accurately ripped (confidence 99) [846EE109]
Copy OK
Track 7
Filename M:\library\wavpack\Howard Shore\(2005) Howard Shore\07 - Keep It Secret, Keep It Safe.wav
Peak level 88.3 %
Track quality 99.9 %
Test CRC 2DEE92C4
Copy CRC 2DEE92C4
Accurately ripped (confidence 99) [001BF446]
Copy OK
Track 8
Filename M:\library\wavpack\Howard Shore\(2005) Howard Shore\08 - A Conspiracy Unmasked.wav
Peak level 72.2 %
Track quality 100.0 %
Test CRC 4551A9BD
Copy CRC 4551A9BD
Accurately ripped (confidence 98) [C347B2FC]
Copy OK
Track 9
Filename M:\library\wavpack\Howard Shore\(2005) Howard Shore\09 - Three Is Company.wav
Peak level 56.5 %
Track quality 100.0 %
Test CRC C10774DE
Copy CRC C10774DE
Accurately ripped (confidence 99) [BCCFA8B8]
Copy OK
Track 10
Filename M:\library\wavpack\Howard Shore\(2005) Howard Shore\10 - The Passing of the Elves.wav
Peak level 17.6 %
Track quality 100.0 %
Test CRC 1F545036
Copy CRC 1F545036
Accurately ripped (confidence 98) [46A892CF]
Copy OK
Track 11
Filename M:\library\wavpack\Howard Shore\(2005) Howard Shore\11 - Saruman the White.wav
Peak level 87.0 %
Track quality 100.0 %
Test CRC 8AB32742
Copy CRC 8AB32742
Accurately ripped (confidence 98) [08617C42]
Copy OK
Track 12
Filename M:\library\wavpack\Howard Shore\(2005) Howard Shore\12 - A Shortcut to Mushrooms.wav
Peak level 84.8 %
Track quality 100.0 %
Test CRC 996B1E54
Copy CRC 996B1E54
Accurately ripped (confidence 97) [85F9B771]
Copy OK
Track 13
Filename M:\library\wavpack\Howard Shore\(2005) Howard Shore\13 - Strider.wav
Peak level 87.8 %
Track quality 100.0 %
Test CRC 52132319
Copy CRC 52132319
Accurately ripped (confidence 98) [14A6C325]
Copy OK
Track 14
Filename M:\library\wavpack\Howard Shore\(2005) Howard Shore\14 - The Nazgыl.wav
Peak level 88.3 %
Track quality 100.0 %
Test CRC 79629B83
Copy CRC 79629B83
Accurately ripped (confidence 98) [E0669B74]
Copy OK
All tracks accurately ripped
No errors occurred
End of status report

Содержание индексной карты (.CUE)

REM GENRE Soundtrack
REM DATE 2005
REM DISCID BE0DBD0E
REM COMMENT "ExactAudioCopy v0.99pb5"
CATALOG 0093624945420
PERFORMER "Howard Shore"
TITLE "The Lord of the Rings- The Fellowship of the Ring [1]"
FILE "01 - Prologue- One Ring to Rule Them All.flac" WAVE
TRACK 01 AUDIO
TITLE "Prologue: One Ring to Rule Them All"
PERFORMER "Howard Shore"
ISRC USRE10501558
INDEX 01 00:00:00
FILE "02 - The Shire.flac" WAVE
TRACK 02 AUDIO
TITLE "The Shire"
PERFORMER "Howard Shore"
ISRC USRE10501559
INDEX 01 00:00:00
FILE "03 - Bag End.flac" WAVE
TRACK 03 AUDIO
TITLE "Bag End"
PERFORMER "Howard Shore"
ISRC USRE10501560
INDEX 01 00:00:00
FILE "04 - Very Old Friends.flac" WAVE
TRACK 04 AUDIO
TITLE "Very Old Friends"
PERFORMER "Howard Shore"
ISRC USRE10501561
INDEX 01 00:00:00
FILE "05 - Flaming Red Hair.flac" WAVE
TRACK 05 AUDIO
TITLE "Flaming Red Hair"
PERFORMER "Howard Shore"
ISRC USRE10501562
INDEX 01 00:00:00
FILE "06 - Farewell Dear Bilbo.flac" WAVE
TRACK 06 AUDIO
TITLE "Farewell Dear Bilbo"
PERFORMER "Howard Shore"
ISRC USRE10501563
INDEX 01 00:00:00
FILE "07 - Keep It Secret, Keep It Safe.flac" WAVE
TRACK 07 AUDIO
TITLE "Keep It Secret, Keep It Safe"
PERFORMER "Howard Shore"
ISRC USRE10501564
INDEX 01 00:00:00
FILE "08 - A Conspiracy Unmasked.flac" WAVE
TRACK 08 AUDIO
TITLE "A Conspiracy Unmasked"
PERFORMER "Howard Shore"
ISRC USRE10501565
INDEX 01 00:00:00
FILE "09 - Three Is Company.flac" WAVE
TRACK 09 AUDIO
TITLE "Three Is Company"
PERFORMER "Howard Shore"
ISRC USRE10501566
INDEX 01 00:00:00
FILE "10 - The Passing of the Elves.flac" WAVE
TRACK 10 AUDIO
TITLE "The Passing of the Elves"
PERFORMER "Howard Shore"
ISRC USRE10501567
INDEX 01 00:00:00
FILE "11 - Saruman the White.flac" WAVE
TRACK 11 AUDIO
TITLE "Saruman the White"
PERFORMER "Howard Shore"
ISRC USRE10501568
INDEX 01 00:00:00
FILE "12 - A Shortcut to Mushrooms.flac" WAVE
TRACK 12 AUDIO
TITLE "A Shortcut to Mushrooms"
PERFORMER "Howard Shore"
ISRC USRE10501569
INDEX 01 00:00:00
FILE "13 - Strider.flac" WAVE
TRACK 13 AUDIO
TITLE "Strider"
PERFORMER "Howard Shore"
ISRC USRE10501570
INDEX 01 00:00:00
FILE "14 - The Nazgul.flac" WAVE
TRACK 14 AUDIO
TITLE "The Nazgul"
PERFORMER "Howard Shore"
ISRC USRE10501571
INDEX 01 00:00:00

CD 2

01. Weathertop (2:14)
02. The Caverns Of Isengard (4:54)
03. Give Up The Halfling (4:49)
04. Orthanc (1:06)
05. Rivendell (3:26)
06. The Sword That Was Broken (3:34)
07. The Council Of Elrond Assembles (4:01)
08. The Great Eye (5:31)
09. Gilraen's Memorial (5:02)
10. The Pass Of Caradhras (5:04)
11. The Doors Of Durin (6:03)
12. Moria (2:28)
13. Gollum (2:27)
14. Balin's Tomb (8:30)

Лог создания рипа

Exact Audio Copy V0.99 prebeta 5 from 4. May 2009
EAC extraction logfile from 25. November 2010, 10:43
Howard Shore / The Lord of the Rings: The Fellowship of the Ring (The Complete Recordings) [2]
Used drive : PIONEER DVD-RW DVR-115D Adapter: 0 ID: 0
Read mode : Secure
Utilize accurate stream : Yes
Defeat audio cache : Yes
Make use of C2 pointers : No
Read offset correction : 48
Overread into Lead-In and Lead-Out : No
Fill up missing offset samples with silence : Yes
Delete leading and trailing silent blocks : No
Null samples used in CRC calculations : Yes
Used interface : Native Win32 interface for Win NT & 2000
Gap handling : Appended to previous track
Used output format : User Defined Encoder
Selected bitrate : 128 kBit/s
Quality : High
Add ID3 tag : No
Command line compressor : D:\apps\wavpack\wavpack.exe
Additional command line options : -w "Artist=%a" -w "Title=%t" -w "Album=%g" -w "Year=%y" -w "Track=%n" -w "Genre=%m" -h %s %d
TOC of the extracted CD
Track | Start | Length | Start sector | End sector
---------------------------------------------------------
1 | 0:00.00 | 2:14.29 | 0 | 10078
2 | 2:14.29 | 4:54.19 | 10079 | 32147
3 | 7:08.48 | 4:49.05 | 32148 | 53827
4 | 11:57.53 | 1:06.31 | 53828 | 58808
5 | 13:04.09 | 3:26.02 | 58809 | 74260
6 | 16:30.11 | 3:34.01 | 74261 | 90311
7 | 20:04.12 | 4:01.26 | 90312 | 108412
8 | 24:05.38 | 5:30.44 | 108413 | 133206
9 | 29:36.07 | 5:01.60 | 133207 | 155841
10 | 34:37.67 | 5:04.01 | 155842 | 178642
11 | 39:41.68 | 6:03.16 | 178643 | 205883
12 | 45:45.09 | 2:27.42 | 205884 | 216950
13 | 48:12.51 | 2:26.48 | 216951 | 227948
14 | 50:39.24 | 8:30.18 | 227949 | 266216
Track 1
Filename M:\library\wavpack\Howard Shore\(2005) Howard Shore\01 - Weathertop.wav
Pre-gap length 0:00:02.00
Peak level 99.1 %
Track quality 100.0 %
Test CRC 0CF39EF6
Copy CRC 0CF39EF6
Accurately ripped (confidence 99) [A27FB3F3]
Copy OK
Track 2
Filename M:\library\wavpack\Howard Shore\(2005) Howard Shore\02 - The Caverns of Isengard.wav
Peak level 99.1 %
Track quality 100.0 %
Test CRC 7A34325F
Copy CRC 7A34325F
Accurately ripped (confidence 98) [1D52E9D2]
Copy OK
Track 3
Filename M:\library\wavpack\Howard Shore\(2005) Howard Shore\03 - Give Up the Halfling.wav
Peak level 99.1 %
Track quality 100.0 %
Test CRC C269837F
Copy CRC C269837F
Accurately ripped (confidence 98) [6E839368]
Copy OK
Track 4
Filename M:\library\wavpack\Howard Shore\(2005) Howard Shore\04 - Orthanc.wav
Peak level 99.1 %
Track quality 99.8 %
Test CRC 12DF8815
Copy CRC 12DF8815
Accurately ripped (confidence 98) [F4E1CE1D]
Copy OK
Track 5
Filename M:\library\wavpack\Howard Shore\(2005) Howard Shore\05 - Rivendell.wav
Peak level 61.1 %
Track quality 100.0 %
Test CRC 42881736
Copy CRC 42881736
Accurately ripped (confidence 99) [6A7315F7]
Copy OK
Track 6
Filename M:\library\wavpack\Howard Shore\(2005) Howard Shore\06 - The Sword That Was Broken.wav
Peak level 95.1 %
Track quality 100.0 %
Test CRC 80D9675E
Copy CRC 80D9675E
Accurately ripped (confidence 100) [508553E8]
Copy OK
Track 7
Filename M:\library\wavpack\Howard Shore\(2005) Howard Shore\07 - The Council of Elrond Assembles.wav
Peak level 98.5 %
Track quality 100.0 %
Test CRC 18F90F59
Copy CRC 18F90F59
Accurately ripped (confidence 99) [1718E773]
Copy OK
Track 8
Filename M:\library\wavpack\Howard Shore\(2005) Howard Shore\08 - The Great Eye.wav
Peak level 95.4 %
Track quality 100.0 %
Test CRC 252F31A1
Copy CRC 252F31A1
Accurately ripped (confidence 100) [287A4D66]
Copy OK
Track 9
Filename M:\library\wavpack\Howard Shore\(2005) Howard Shore\09 - Gilraen's Memorial.wav
Peak level 99.1 %
Track quality 100.0 %
Test CRC 53149C66
Copy CRC 53149C66
Accurately ripped (confidence 96) [08DF0315]
Copy OK
Track 10
Filename M:\library\wavpack\Howard Shore\(2005) Howard Shore\10 - The Pass of Caradhras.wav
Peak level 99.1 %
Track quality 100.0 %
Test CRC C0A487D5
Copy CRC C0A487D5
Accurately ripped (confidence 96) [753E65B9]
Copy OK
Track 11
Filename M:\library\wavpack\Howard Shore\(2005) Howard Shore\11 - The Doors of Durin.wav
Peak level 99.1 %
Track quality 100.0 %
Test CRC AC569100
Copy CRC AC569100
Accurately ripped (confidence 99) [379E15AE]
Copy OK
Track 12
Filename M:\library\wavpack\Howard Shore\(2005) Howard Shore\12 - Moria.wav
Peak level 49.8 %
Track quality 100.0 %
Test CRC 956E4927
Copy CRC 956E4927
Accurately ripped (confidence 98) [155A9C9C]
Copy OK
Track 13
Filename M:\library\wavpack\Howard Shore\(2005) Howard Shore\13 - Gollum.wav
Peak level 14.0 %
Track quality 100.0 %
Test CRC 127D7A09
Copy CRC 127D7A09
Accurately ripped (confidence 100) [5109D47B]
Copy OK
Track 14
Filename M:\library\wavpack\Howard Shore\(2005) Howard Shore\14 - Balin's Tomb.wav
Peak level 99.1 %
Track quality 100.0 %
Test CRC E814A535
Copy CRC E814A535
Accurately ripped (confidence 98) [D298CBC2]
Copy OK
All tracks accurately ripped
No errors occurred
End of status report

Содержание индексной карты (.CUE)

REM GENRE Soundtrack
REM DATE 2005
REM DISCID D20DDD0E
REM COMMENT "ExactAudioCopy v0.99pb5"
CATALOG 0093624945420
PERFORMER "Howard Shore"
TITLE "The Lord of the Rings- The Fellowship of the Ring [2]"
FILE "01 - Weathertop.flac" WAVE
TRACK 01 AUDIO
TITLE "Weathertop"
PERFORMER "Howard Shore"
ISRC USRE10501572
INDEX 01 00:00:00
FILE "02 - The Caverns of Isengard.flac" WAVE
TRACK 02 AUDIO
TITLE "The Caverns of Isengard"
PERFORMER "Howard Shore"
ISRC USRE10501573
INDEX 01 00:00:00
FILE "03 - Give Up the Halfling.flac" WAVE
TRACK 03 AUDIO
TITLE "Give Up the Halfling"
PERFORMER "Howard Shore"
ISRC USRE10501574
INDEX 01 00:00:00
FILE "04 - Orthanc.flac" WAVE
TRACK 04 AUDIO
TITLE "Orthanc"
PERFORMER "Howard Shore"
ISRC USRE10501575
INDEX 01 00:00:00
FILE "05 - Rivendell.flac" WAVE
TRACK 05 AUDIO
TITLE "Rivendell"
PERFORMER "Howard Shore"
ISRC USRE10501576
INDEX 01 00:00:00
FILE "06 - The Sword That Was Broken.flac" WAVE
TRACK 06 AUDIO
TITLE "The Sword That Was Broken"
PERFORMER "Howard Shore"
ISRC USRE10501577
INDEX 01 00:00:00
FILE "07 - The Council of Elrond Assembles.flac" WAVE
TRACK 07 AUDIO
TITLE "The Council of Elrond Assembles"
PERFORMER "Howard Shore"
ISRC USRE10501578
INDEX 01 00:00:00
FILE "08 - The Great Eye.flac" WAVE
TRACK 08 AUDIO
TITLE "The Great Eye"
PERFORMER "Howard Shore"
ISRC USRE10501579
INDEX 01 00:00:00
FILE "09 - Gilraen's Memorial.flac" WAVE
TRACK 09 AUDIO
TITLE "Gilraen's Memorial"
PERFORMER "Howard Shore"
ISRC USRE10501580
INDEX 01 00:00:00
FILE "10 - The Pass of Caradhras.flac" WAVE
TRACK 10 AUDIO
TITLE "The Pass of Caradhras"
PERFORMER "Howard Shore"
ISRC USRE10501581
INDEX 01 00:00:00
FILE "11 - The Doors of Durin.flac" WAVE
TRACK 11 AUDIO
TITLE "The Doors of Durin"
PERFORMER "Howard Shore"
ISRC USRE10501582
INDEX 01 00:00:00
FILE "12 - Moria.flac" WAVE
TRACK 12 AUDIO
TITLE "Moria"
PERFORMER "Howard Shore"
ISRC USRE10501583
INDEX 01 00:00:00
FILE "13 - Gollum.flac" WAVE
TRACK 13 AUDIO
TITLE "Gollum"
PERFORMER "Howard Shore"
ISRC USRE10501584
INDEX 01 00:00:00
FILE "14 - Balin's Tomb.flac" WAVE
TRACK 14 AUDIO
TITLE "Balin's Tomb"
PERFORMER "Howard Shore"
ISRC USRE10501585
INDEX 01 00:00:00

CD 3

01. Khazad-Dыm (8:00)
02. Caras Galadhon (9:21)
03. The Mirror Of Galadriel (6:21)
04. The Fighting Uruk-Hai (11:32)
05. Parth Galen (9:14)
06. The Departure Of Boromir (5:30)
07. The Road Goes Ever On... Pt. 1 (5:59)
08. May It Be (3:26)
09. The Road Goes Ever On... Pt. 2 (3:41)

Лог создания рипа

Exact Audio Copy V0.99 prebeta 5 from 4. May 2009
EAC extraction logfile from 25. November 2010, 11:13
Howard Shore / The Lord of the Rings: The Fellowship of the Ring (The Complete Recordings) [3]
Used drive : PIONEER DVD-RW DVR-115D Adapter: 0 ID: 0
Read mode : Secure
Utilize accurate stream : Yes
Defeat audio cache : Yes
Make use of C2 pointers : No
Read offset correction : 48
Overread into Lead-In and Lead-Out : No
Fill up missing offset samples with silence : Yes
Delete leading and trailing silent blocks : No
Null samples used in CRC calculations : Yes
Used interface : Native Win32 interface for Win NT & 2000
Gap handling : Appended to previous track
Used output format : User Defined Encoder
Selected bitrate : 128 kBit/s
Quality : High
Add ID3 tag : No
Command line compressor : D:\apps\wavpack\wavpack.exe
Additional command line options : -w "Artist=%a" -w "Title=%t" -w "Album=%g" -w "Year=%y" -w "Track=%n" -w "Genre=%m" -h %s %d
TOC of the extracted CD
Track | Start | Length | Start sector | End sector
---------------------------------------------------------
1 | 0:00.00 | 8:00.02 | 0 | 36001
2 | 8:00.02 | 9:20.70 | 36002 | 78071
3 | 17:20.72 | 6:21.07 | 78072 | 106653
4 | 23:42.04 | 11:32.21 | 106654 | 158574
5 | 35:14.25 | 9:13.56 | 158575 | 200105
6 | 44:28.06 | 5:29.40 | 200106 | 224820
7 | 49:57.46 | 5:58.40 | 224821 | 251710
8 | 55:56.11 | 3:26.23 | 251711 | 267183
9 | 59:22.34 | 3:41.17 | 267184 | 283775
Track 1
Filename M:\library\wavpack\Howard Shore\(2005) The Lord of the Rings- The Fellowship of the Ring (The Complete Recordings) [3]\01 - Khazad-Dыm.wav
Pre-gap length 0:00:02.00
Peak level 99.1 %
Track quality 99.9 %
Test CRC 32482FE6
Copy CRC 32482FE6
Accurately ripped (confidence 98) [858B9AC9]
Copy OK
Track 2
Filename M:\library\wavpack\Howard Shore\(2005) The Lord of the Rings- The Fellowship of the Ring (The Complete Recordings) [3]\02 - Caras Galadhon.wav
Peak level 99.1 %
Track quality 100.0 %
Test CRC 8D241FB5
Copy CRC 8D241FB5
Accurately ripped (confidence 99) [8957CC06]
Copy OK
Track 3
Filename M:\library\wavpack\Howard Shore\(2005) The Lord of the Rings- The Fellowship of the Ring (The Complete Recordings) [3]\03 - The Mirror Of Galadriel.wav
Peak level 99.1 %
Track quality 100.0 %
Test CRC DC64D976
Copy CRC DC64D976
Accurately ripped (confidence 98) [066C2AC4]
Copy OK
Track 4
Filename M:\library\wavpack\Howard Shore\(2005) The Lord of the Rings- The Fellowship of the Ring (The Complete Recordings) [3]\04 - The Fighting Uruk-Hai.wav
Peak level 99.1 %
Track quality 100.0 %
Test CRC 330866AD
Copy CRC 330866AD
Accurately ripped (confidence 98) [6F7D7F5B]
Copy OK
Track 5
Filename M:\library\wavpack\Howard Shore\(2005) The Lord of the Rings- The Fellowship of the Ring (The Complete Recordings) [3]\05 - Parth Galen.wav
Peak level 99.1 %
Track quality 100.0 %
Test CRC 325F4F7E
Copy CRC 325F4F7E
Accurately ripped (confidence 98) [034F0FA8]
Copy OK
Track 6
Filename M:\library\wavpack\Howard Shore\(2005) The Lord of the Rings- The Fellowship of the Ring (The Complete Recordings) [3]\06 - The Departure Of Boromir.wav
Peak level 99.1 %
Track quality 100.0 %
Test CRC 3AA2D824
Copy CRC 3AA2D824
Accurately ripped (confidence 97) [9F579F2B]
Copy OK
Track 7
Filename M:\library\wavpack\Howard Shore\(2005) The Lord of the Rings- The Fellowship of the Ring (The Complete Recordings) [3]\07 - The Road Goes Ever On... Pt. 1.wav
Peak level 79.4 %
Track quality 100.0 %
Test CRC F146269A
Copy CRC F146269A
Accurately ripped (confidence 97) [528DB3FD]
Copy OK
Track 8
Filename M:\library\wavpack\Howard Shore\(2005) The Lord of the Rings- The Fellowship of the Ring (The Complete Recordings) [3]\08 - May It Be.wav
Peak level 66.5 %
Track quality 100.0 %
Test CRC 1DCAE818
Copy CRC 1DCAE818
Accurately ripped (confidence 97) [0E6A63C7]
Copy OK
Track 9
Filename M:\library\wavpack\Howard Shore\(2005) The Lord of the Rings- The Fellowship of the Ring (The Complete Recordings) [3]\09 - The Road Goes Ever On... Pt. 2.wav
Peak level 99.1 %
Track quality 100.0 %
Test CRC FD274332
Copy CRC FD274332
Accurately ripped (confidence 96) [F2DA2095]
Copy OK
All tracks accurately ripped
No errors occurred
End of status report

Содержание индексной карты (.CUE)

REM GENRE Soundtrack
REM DATE 2005
REM DISCID 7D0EC709
REM COMMENT "ExactAudioCopy v0.99pb5"
CATALOG 0093624945420
PERFORMER "Howard Shore"
TITLE "The Lord of the Rings- The Fellowship of the Ring [3]"
FILE "01 - Khazad-Dum.flac" WAVE
TRACK 01 AUDIO
TITLE "Khazad-Dum"
PERFORMER "Howard Shore"
ISRC USRE10501586
INDEX 01 00:00:00
FILE "02 - Caras Galadhon.flac" WAVE
TRACK 02 AUDIO
TITLE "Caras Galadhon"
PERFORMER "Howard Shore"
ISRC USRE10501587
INDEX 01 00:00:00
FILE "03 - The Mirror Of Galadriel.flac" WAVE
TRACK 03 AUDIO
TITLE "The Mirror Of Galadriel"
PERFORMER "Howard Shore"
ISRC USRE10501588
INDEX 01 00:00:00
FILE "04 - The Fighting Uruk-Hai.flac" WAVE
TRACK 04 AUDIO
TITLE "The Fighting Uruk-Hai"
PERFORMER "Howard Shore"
ISRC USRE10501589
INDEX 01 00:00:00
FILE "05 - Parth Galen.flac" WAVE
TRACK 05 AUDIO
TITLE "Parth Galen"
PERFORMER "Howard Shore"
ISRC USRE10501590
INDEX 01 00:00:00
FILE "06 - The Departure Of Boromir.flac" WAVE
TRACK 06 AUDIO
TITLE "The Departure Of Boromir"
PERFORMER "Howard Shore"
ISRC USRE10501591
INDEX 01 00:00:00
FILE "07 - The Road Goes Ever On... Pt. 1.flac" WAVE
TRACK 07 AUDIO
TITLE "The Road Goes Ever On... Pt. 1"
PERFORMER "Howard Shore"
ISRC USRE10501592
INDEX 01 00:00:00
FILE "08 - May It Be.flac" WAVE
TRACK 08 AUDIO
TITLE "May It Be"
PERFORMER "Howard Shore"
ISRC GBAHT0108619
INDEX 01 00:00:00
FILE "09 - The Road Goes Ever On... Pt. 2.flac" WAVE
TRACK 09 AUDIO
TITLE "The Road Goes Ever On... Pt. 2"
PERFORMER "Howard Shore"
ISRC USRE10501593
INDEX 01 00:00:00
Total time - 03:00:50

2006 - The Lord Of The Rings The Two Towers

CD 1

01. Glamdring (3:50)
02. Elven Rope (2:19)
03. Lost In Emyn Muil (4:14)
04. My Precious (2:56)
05. Uglúk's Warriors (1:41)
06. The Three Hunters (6:12)
07. The Banishment Of Éomer (3:55)
08. Night Camp (2:50)
09. The Plains Of Rohan (4:14)
10. Fangorn (5:13)
11. The Dead Marshes (5:08)
12. Wraiths On Wings (2:07)
13. Gandalf The White (6:48)
14. The Dreams Of Trees (1:54)
15. The Heir Of Númenor (6:50)
16. Ent-Draught (2:53)

Лог создания рипа

Exact Audio Copy V0.99 prebeta 4 from 23. January 2008
EAC extraction logfile from 11. June 2008, 0:43
Howard Shore / The Lord of the Rings: The Two Towers (The Complete Recordings) [1]
Used drive : HP DVD Writer 840x Adapter: 1 ID: 0
Read mode : Secure
Utilize accurate stream : Yes
Defeat audio cache : Yes
Make use of C2 pointers : No
Read offset correction : 102
Overread into Lead-In and Lead-Out : No
Fill up missing offset samples with silence : Yes
Delete leading and trailing silent blocks : No
Null samples used in CRC calculations : Yes
Used interface : Installed external ASPI interface
Gap handling : Appended to previous track
Used output format : User Defined Encoder
Selected bitrate : 192 kBit/s
Quality : High
Add ID3 tag : No
Command line compressor : C:\Program Files\TotalAudioConverter\flac.exe
Additional command line options : -8 -A tukey(0.25) -A gauss(0.1875) -b 4096 -V -T "artist=%a" -T "title=%t" -T "album=%g" -T "date=%y" -T "tracknumber=%n" -T "genre=%m" %s --sector-align
TOC of the extracted CD
Track | Start | Length | Start sector | End sector
---------------------------------------------------------
1 | 0:00.00 | 3:50.16 | 0 | 17265
2 | 3:50.16 | 2:19.03 | 17266 | 27693
3 | 6:09.19 | 4:14.39 | 27694 | 46782
4 | 10:23.58 | 2:56.49 | 46783 | 60031
5 | 13:20.32 | 1:41.29 | 60032 | 67635
6 | 15:01.61 | 6:12.14 | 67636 | 95549
7 | 21:14.00 | 3:54.73 | 95550 | 113172
8 | 25:08.73 | 2:50.15 | 113173 | 125937
9 | 27:59.13 | 4:14.46 | 125938 | 145033
10 | 32:13.59 | 5:13.35 | 145034 | 168543
11 | 37:27.19 | 5:07.74 | 168544 | 191642
12 | 42:35.18 | 2:07.68 | 191643 | 201235
13 | 44:43.11 | 6:47.72 | 201236 | 231832
14 | 51:31.08 | 1:54.68 | 231833 | 240450
15 | 53:26.01 | 6:50.47 | 240451 | 271247
16 | 60:16.48 | 2:53.46 | 271248 | 284268
Track 1
Filename N:\Music\The Lord Of The Rings Two Towers\Disc 1\01 - Glamdring.wav
Pre-gap length 0:00:02.00
Peak level 88.4 %
Track quality 100.0 %
Test CRC 4860EE1C
Copy CRC 4860EE1C
Copy OK
Track 2
Filename N:\Music\The Lord Of The Rings Two Towers\Disc 1\02 - Elven Rope.wav
Pre-gap length 0:00:00.02
Peak level 80.8 %
Track quality 100.0 %
Test CRC 21C72F4B
Copy CRC 21C72F4B
Copy OK
Track 3
Filename N:\Music\The Lord Of The Rings Two Towers\Disc 1\03 - Lost in Emyn Muil.wav
Pre-gap length 0:00:00.02
Peak level 99.1 %
Track quality 100.0 %
Test CRC BDA69BA8
Copy CRC BDA69BA8
Copy OK
Track 4
Filename N:\Music\The Lord Of The Rings Two Towers\Disc 1\04 - My Precious.wav
Pre-gap length 0:00:00.02
Peak level 42.6 %
Track quality 99.9 %
Test CRC B88D58D4
Copy CRC B88D58D4
Copy OK
Track 5
Filename N:\Music\The Lord Of The Rings Two Towers\Disc 1\05 - Uglъk's Warriors.wav
Pre-gap length 0:00:00.02
Peak level 99.1 %
Track quality 100.0 %
Test CRC CE757184
Copy CRC CE757184
Copy OK
Track 6
Filename N:\Music\The Lord Of The Rings Two Towers\Disc 1\06 - The Three Hunters.wav
Pre-gap length 0:00:00.02
Peak level 99.1 %
Track quality 100.0 %
Test CRC DD5F5778
Copy CRC DD5F5778
Copy OK
Track 7
Filename N:\Music\The Lord Of The Rings Two Towers\Disc 1\07 - The Banishment of Йomer.wav
Pre-gap length 0:00:00.02
Peak level 88.3 %
Track quality 100.0 %
Test CRC CC1C3D85
Copy CRC CC1C3D85
Copy OK
Track 8
Filename N:\Music\The Lord Of The Rings Two Towers\Disc 1\08 - Night Camp.wav
Pre-gap length 0:00:00.02
Peak level 88.4 %
Track quality 100.0 %
Test CRC 22E7A950
Copy CRC 22E7A950
Copy OK
Track 9
Filename N:\Music\The Lord Of The Rings Two Towers\Disc 1\09 - The Plains of Rohan.wav
Pre-gap length 0:00:00.02
Peak level 88.4 %
Track quality 100.0 %
Test CRC 9EC2DD4D
Copy CRC 9EC2DD4D
Copy OK
Track 10
Filename N:\Music\The Lord Of The Rings Two Towers\Disc 1\10 - Fangorn.wav
Pre-gap length 0:00:00.02
Peak level 88.4 %
Track quality 99.9 %
Test CRC 1656F599
Copy CRC 1656F599
Copy OK
Track 11
Filename N:\Music\The Lord Of The Rings Two Towers\Disc 1\11 - The Dead Marshes.wav
Pre-gap length 0:00:00.02
Peak level 88.3 %
Track quality 100.0 %
Test CRC EAB0774E
Copy CRC EAB0774E
Copy OK
Track 12
Filename N:\Music\The Lord Of The Rings Two Towers\Disc 1\12 - 'Wraiths on Wings'.wav
Pre-gap length 0:00:00.02
Peak level 88.4 %
Track quality 100.0 %
Test CRC 6059D007
Copy CRC 6059D007
Copy OK
Track 13
Filename N:\Music\The Lord Of The Rings Two Towers\Disc 1\13 - Gandalf the White.wav
Pre-gap length 0:00:00.02
Peak level 88.3 %
Track quality 100.0 %
Test CRC EBF47594
Copy CRC EBF47594
Copy OK
Track 14
Filename N:\Music\The Lord Of The Rings Two Towers\Disc 1\14 - The Dreams of Trees.wav
Pre-gap length 0:00:00.02
Peak level 56.1 %
Track quality 99.9 %
Test CRC 9DB160E0
Copy CRC 9DB160E0
Copy OK
Track 15
Filename N:\Music\The Lord Of The Rings Two Towers\Disc 1\15 - The Heir of Nъmenor.wav
Pre-gap length 0:00:00.02
Peak level 88.3 %
Track quality 100.0 %
Test CRC D4387DF3
Copy CRC D4387DF3
Copy OK
Track 16
Filename N:\Music\The Lord Of The Rings Two Towers\Disc 1\16 - Ent-draught.wav
Pre-gap length 0:00:00.02
Peak level 88.3 %
Track quality 100.0 %
Test CRC 814AFF84
Copy CRC 814AFF84
Copy OK
No errors occurred
End of status report

Содержание индексной карты (.CUE)

REM GENRE "Film Score"
REM DATE 2002
REM DISCID D70ECE10
REM COMMENT "ExactAudioCopy v0.99pb4"
PERFORMER "Howard Shore"
TITLE "The Lord Of The Rings Two Towers [1]"
FILE "01 - Glamdring.flac" WAVE
TRACK 01 AUDIO
TITLE "Glamdring"
PERFORMER "Howard Shore"
INDEX 01 00:00:00
FILE "02 - Elven Rope.flac" WAVE
TRACK 02 AUDIO
TITLE "Elven Rope"
PERFORMER "Howard Shore"
INDEX 01 00:00:00
FILE "03 - Lost in Emyn Muil.flac" WAVE
TRACK 03 AUDIO
TITLE "Lost in Emyn Muil"
PERFORMER "Howard Shore"
INDEX 01 00:00:00
FILE "04 - My Precious.flac" WAVE
TRACK 04 AUDIO
TITLE "My Precious"
PERFORMER "Howard Shore"
INDEX 01 00:00:00
FILE "05 - Ugluk's Warriors.flac" WAVE
TRACK 05 AUDIO
TITLE "Ugluk's Warriors"
PERFORMER "Howard Shore"
INDEX 01 00:00:00
FILE "06 - The Three Hunters.flac" WAVE
TRACK 06 AUDIO
TITLE "The Three Hunters"
PERFORMER "Howard Shore"
INDEX 01 00:00:00
FILE "07 - The Banishment of Eomer.flac" WAVE
TRACK 07 AUDIO
TITLE "The Banishment of Eomer"
PERFORMER "Howard Shore"
INDEX 01 00:00:00
FILE "08 - Night Camp.flac" WAVE
TRACK 08 AUDIO
TITLE "Night Camp"
PERFORMER "Howard Shore"
INDEX 01 00:00:00
FILE "09 - The Plains of Rohan.flac" WAVE
TRACK 09 AUDIO
TITLE "The Plains of Rohan"
PERFORMER "Howard Shore"
INDEX 01 00:00:00
FILE "10 - Fangorn.flac" WAVE
TRACK 10 AUDIO
TITLE "Fangorn"
PERFORMER "Howard Shore"
INDEX 01 00:00:00
FILE "11 - The Dead Marshes.flac" WAVE
TRACK 11 AUDIO
TITLE "The Dead Marshes"
PERFORMER "Howard Shore"
INDEX 01 00:00:00
FILE "12 - 'Wraiths on Wings'.flac" WAVE
TRACK 12 AUDIO
TITLE "'Wraiths on Wings'"
PERFORMER "Howard Shore"
INDEX 01 00:00:00
FILE "13 - Gandalf the White.flac" WAVE
TRACK 13 AUDIO
TITLE "Gandalf the White"
PERFORMER "Howard Shore"
INDEX 01 00:00:00
FILE "14 - The Dreams of Trees.flac" WAVE
TRACK 14 AUDIO
TITLE "The Dreams of Trees"
PERFORMER "Howard Shore"
INDEX 01 00:00:00
FILE "15 - The Heir of Numenor.flac" WAVE
TRACK 15 AUDIO
TITLE "The Heir of Numenor"
PERFORMER "Howard Shore"
INDEX 01 00:00:00
FILE "16 - Ent-draught.flac" WAVE
TRACK 16 AUDIO
TITLE "Ent-draught"
PERFORMER "Howard Shore"
INDEX 01 00:00:00

CD 2

01. Edoras (4:34)
02. The Court Of Meduseld (3:11)
03. Thйoden King (6:12)
04. The King's Decision (2:08)
05. Exodus From Edoras (5:43)
06. The Forests Of Ithilien (6:38)
07. One Of The Dъnedain (7:13)
08. The Wolves Of Isengard (4:22)
09. Refuge At Helm's Deep (4:00)
10. The Voice Of Saruman (1:12)
11. Arwens' Fate (3:59)
12. The Story Foretold (3:39)
13. Sons Of The Steward (6:03)
14. Rock And Pool (2:55)
15. Faramir's Good Council (2:21)

Лог создания рипа

Exact Audio Copy V0.99 prebeta 4 from 23. January 2008
EAC extraction logfile from 11. June 2008, 1:24
Howard Shore / The Lord of the Rings: The Two Towers (The Complete Recordings) [2]
Used drive : TSSTcorpDVD-ROM TS-H352C Adapter: 1 ID: 1
Read mode : Secure
Utilize accurate stream : Yes
Defeat audio cache : Yes
Make use of C2 pointers : No
Read offset correction : 6
Overread into Lead-In and Lead-Out : No
Fill up missing offset samples with silence : Yes
Delete leading and trailing silent blocks : No
Null samples used in CRC calculations : Yes
Used interface : Installed external ASPI interface
Gap handling : Appended to previous track
Used output format : User Defined Encoder
Selected bitrate : 192 kBit/s
Quality : High
Add ID3 tag : No
Command line compressor : C:\Program Files\TotalAudioConverter\flac.exe
Additional command line options : -8 -A tukey(0.25) -A gauss(0.1875) -b 4096 -V -T "artist=%a" -T "title=%t" -T "album=%g" -T "date=%y" -T "tracknumber=%n" -T "genre=%m" %s --sector-align
TOC of the extracted CD
Track | Start | Length | Start sector | End sector
---------------------------------------------------------
1 | 0:00.00 | 4:34.21 | 0 | 20570
2 | 4:34.21 | 3:10.50 | 20571 | 34870
3 | 7:44.71 | 6:12.21 | 34871 | 62791
4 | 13:57.17 | 2:07.53 | 62792 | 72369
5 | 16:04.70 | 5:42.51 | 72370 | 98070
6 | 21:47.46 | 6:37.49 | 98071 | 127894
7 | 28:25.20 | 7:13.09 | 127895 | 160378
8 | 35:38.29 | 4:22.26 | 160379 | 180054
9 | 40:00.55 | 3:59.52 | 180055 | 198031
10 | 44:00.32 | 1:11.45 | 198032 | 203401
11 | 45:12.02 | 3:58.48 | 203402 | 221299
12 | 49:10.50 | 3:38.39 | 221300 | 237688
13 | 52:49.14 | 6:02.41 | 237689 | 264879
14 | 58:51.55 | 2:54.53 | 264880 | 277982
15 | 61:46.33 | 2:20.57 | 277983 | 288539
Track 1
Filename N:\Music\The Lord Of The Rings Two Towers\Disc 2\01 - Edoras.wav
Pre-gap length 0:00:02.00
Peak level 81.1 %
Track quality 99.9 %
Test CRC AAAD46BF
Copy CRC AAAD46BF
Copy OK
Track 2
Filename N:\Music\The Lord Of The Rings Two Towers\Disc 2\02 - The Court of Meduseld.wav
Peak level 99.1 %
Track quality 100.0 %
Test CRC FC259AC6
Copy CRC FC259AC6
Copy OK
Track 3
Filename N:\Music\The Lord Of The Rings Two Towers\Disc 2\03 - Thйoden King.wav
Peak level 99.1 %
Track quality 100.0 %
Test CRC B2E04A41
Copy CRC B2E04A41
Copy OK
Track 4
Filename N:\Music\The Lord Of The Rings Two Towers\Disc 2\04 - The King's Decision.wav
Peak level 99.1 %
Track quality 100.0 %
Test CRC 2AEF4D16
Copy CRC 2AEF4D16
Copy OK
Track 5
Filename N:\Music\The Lord Of The Rings Two Towers\Disc 2\05 - Exodus From Edoras.wav
Peak level 99.2 %
Track quality 99.9 %
Test CRC 267B2C0E
Copy CRC 267B2C0E
Copy OK
Track 6
Filename N:\Music\The Lord Of The Rings Two Towers\Disc 2\06 - The Forests of Ithilien.wav
Peak level 99.1 %
Track quality 100.0 %
Test CRC D231ED1C
Copy CRC D231ED1C
Copy OK
Track 7
Filename N:\Music\The Lord Of The Rings Two Towers\Disc 2\07 - One of the Dъnedain.wav
Peak level 64.8 %
Track quality 100.0 %
Test CRC F691A1AD
Copy CRC F691A1AD
Copy OK
Track 8
Filename N:\Music\The Lord Of The Rings Two Towers\Disc 2\08 - The Wolves of Isengard.wav
Peak level 88.4 %
Track quality 99.9 %
Test CRC 4E60C97E
Copy CRC 4E60C97E
Copy OK
Track 9
Filename N:\Music\The Lord Of The Rings Two Towers\Disc 2\09 - Refuge at Helm's Deep.wav
Peak level 80.3 %
Track quality 100.0 %
Test CRC C5D361F9
Copy CRC C5D361F9
Copy OK
Track 10
Filename N:\Music\The Lord Of The Rings Two Towers\Disc 2\10 - The Voice of Saruman.wav
Peak level 88.3 %
Track quality 100.0 %
Test CRC 4F05C5B9
Copy CRC 4F05C5B9
Copy OK
Track 11
Filename N:\Music\The Lord Of The Rings Two Towers\Disc 2\11 - Arwen's Fate.wav
Peak level 33.2 %
Track quality 100.0 %
Test CRC 0B91624C
Copy CRC 0B91624C
Copy OK
Track 12
Filename N:\Music\The Lord Of The Rings Two Towers\Disc 2\12 - The Story Foretold.wav
Peak level 38.1 %
Track quality 100.0 %
Test CRC 978495D9
Copy CRC 978495D9
Copy OK
Track 13
Filename N:\Music\The Lord Of The Rings Two Towers\Disc 2\13 - Sons of the Steward.wav
Peak level 88.1 %
Track quality 100.0 %
Test CRC BA9E944D
Copy CRC BA9E944D
Copy OK
Track 14
Filename N:\Music\The Lord Of The Rings Two Towers\Disc 2\14 - Rock and Pool.wav
Peak level 78.1 %
Track quality 100.0 %
Test CRC 32AD88EF
Copy CRC 32AD88EF
Copy OK
Track 15
Filename N:\Music\The Lord Of The Rings Two Towers\Disc 2\15 - Faramir's Good Council.wav
Peak level 26.7 %
Track quality 100.0 %
Test CRC 67D090EB
Copy CRC 67D090EB
Copy OK
No errors occurred
End of status report

Содержание индексной карты (.CUE)

REM GENRE "Film Score"
REM DATE 2002
REM DISCID CF0F070F
REM COMMENT "ExactAudioCopy v0.99pb4"
PERFORMER "Howard Shore"
TITLE "The Lord Of The Rings Two Towers [2]"
FILE "01 - Edoras.flac" WAVE
TRACK 01 AUDIO
TITLE "Edoras"
PERFORMER "Howard Shore"
INDEX 01 00:00:00
FILE "02 - The Court of Meduseld.flac" WAVE
TRACK 02 AUDIO
TITLE "The Court of Meduseld"
PERFORMER "Howard Shore"
INDEX 01 00:00:00
FILE "03 - Theoden King.flac" WAVE
TRACK 03 AUDIO
TITLE "Theoden King"
PERFORMER "Howard Shore"
INDEX 01 00:00:00
FILE "04 - The King's Decision.flac" WAVE
TRACK 04 AUDIO
TITLE "The King's Decision"
PERFORMER "Howard Shore"
INDEX 01 00:00:00
FILE "05 - Exodus From Edoras.flac" WAVE
TRACK 05 AUDIO
TITLE "Exodus From Edoras"
PERFORMER "Howard Shore"
INDEX 01 00:00:00
FILE "06 - The Forests of Ithilien.flac" WAVE
TRACK 06 AUDIO
TITLE "The Forests of Ithilien"
PERFORMER "Howard Shore"
INDEX 01 00:00:00
FILE "07 - One of the Dunedain.flac" WAVE
TRACK 07 AUDIO
TITLE "One of the Dunedain"
PERFORMER "Howard Shore"
INDEX 01 00:00:00
FILE "08 - The Wolves of Isengard.flac" WAVE
TRACK 08 AUDIO
TITLE "The Wolves of Isengard"
PERFORMER "Howard Shore"
INDEX 01 00:00:00
FILE "09 - Refuge at Helm's Deep.flac" WAVE
TRACK 09 AUDIO
TITLE "Refuge at Helm's Deep"
PERFORMER "Howard Shore"
INDEX 01 00:00:00
FILE "10 - The Voice of Saruman.flac" WAVE
TRACK 10 AUDIO
TITLE "The Voice of Saruman"
PERFORMER "Howard Shore"
INDEX 01 00:00:00
FILE "11 - Arwen's Fate.flac" WAVE
TRACK 11 AUDIO
TITLE "Arwen's Fate"
PERFORMER "Howard Shore"
INDEX 01 00:00:00
FILE "12 - The Story Foretold.flac" WAVE
TRACK 12 AUDIO
TITLE "The Story Foretold"
PERFORMER "Howard Shore"
INDEX 01 00:00:00
FILE "13 - Sons of the Steward.flac" WAVE
TRACK 13 AUDIO
TITLE "Sons of the Steward"
PERFORMER "Howard Shore"
INDEX 01 00:00:00
FILE "14 - Rock and Pool.flac" WAVE
TRACK 14 AUDIO
TITLE "Rock and Pool"
PERFORMER "Howard Shore"
INDEX 01 00:00:00
FILE "15 - Faramir's Good Council.flac" WAVE
TRACK 15 AUDIO
TITLE "Faramir's Good Council"
PERFORMER "Howard Shore"
INDEX 01 00:00:00

CD 3

01. Aragorn's Return (2:12)
02. War Is Upon Us (3:36)
03. Where Is The Horse And The Rider (6:16)
04. The Host Of The Eldar (2:51)
05. The Battle Of The Hornburg (2:53)
06. The Breach Of The Deeping Wall (3:03)
07. The Entmoot Decides (2:06)
08. Retreat (4:41)
09. Master Peregrin's Plan (2:32)
10. The Last March Of The Ents (2:31)
11. The Nazgul Attack (2:45)
12. Theoden Rides Forth (5:48)
13. The Tales That Really Matter (12:01)
14. Long Ways To Go Yet (8:06)

Лог создания рипа

Exact Audio Copy V0.99 prebeta 4 from 23. January 2008
EAC extraction logfile from 11. June 2008, 0:52
Howard Shore / The Lord of the Rings: The Two Towers (The Complete Recordings) [3]
Used drive : TSSTcorpDVD-ROM TS-H352C Adapter: 1 ID: 1
Read mode : Secure
Utilize accurate stream : Yes
Defeat audio cache : Yes
Make use of C2 pointers : No
Read offset correction : 6
Overread into Lead-In and Lead-Out : No
Fill up missing offset samples with silence : Yes
Delete leading and trailing silent blocks : No
Null samples used in CRC calculations : Yes
Used interface : Installed external ASPI interface
Gap handling : Appended to previous track
Used output format : User Defined Encoder
Selected bitrate : 192 kBit/s
Quality : High
Add ID3 tag : No
Command line compressor : C:\Program Files\TotalAudioConverter\flac.exe
Additional command line options : -8 -A tukey(0.25) -A gauss(0.1875) -b 4096 -V -T "artist=%a" -T "title=%t" -T "album=%g" -T "date=%y" -T "tracknumber=%n" -T "genre=%m" %s --sector-align
TOC of the extracted CD
Track | Start | Length | Start sector | End sector
---------------------------------------------------------
1 | 0:00.00 | 2:11.68 | 0 | 9892
2 | 2:11.68 | 3:35.51 | 9893 | 26068
3 | 5:47.44 | 6:15.51 | 26069 | 54244
4 | 12:03.20 | 2:50.51 | 54245 | 67045
5 | 14:53.71 | 2:52.44 | 67046 | 79989
6 | 17:46.40 | 3:03.05 | 79990 | 93719
7 | 20:49.45 | 2:06.34 | 93720 | 103203
8 | 22:56.04 | 4:40.51 | 103204 | 124254
9 | 27:36.55 | 2:31.62 | 124255 | 135641
10 | 30:08.42 | 2:31.22 | 135642 | 146988
11 | 32:39.64 | 2:45.21 | 146989 | 159384
12 | 35:25.10 | 5:47.68 | 159385 | 185477
13 | 41:13.03 | 12:01.01 | 185478 | 239553
14 | 53:14.04 | 8:05.40 | 239554 | 275968
Track 1
Filename N:\Music\The Lord Of The Rings Two Towers\Disc 3\01 - Aragorn's Return.wav
Pre-gap length 0:00:02.00
Peak level 98.9 %
Track quality 100.0 %
Test CRC BF63794C
Copy CRC BF63794C
Copy OK
Track 2
Filename N:\Music\The Lord Of The Rings Two Towers\Disc 3\02 - War Is Upon Us.wav
Peak level 95.2 %
Track quality 100.0 %
Test CRC 7E872602
Copy CRC 7E872602
Copy OK
Track 3
Filename N:\Music\The Lord Of The Rings Two Towers\Disc 3\03 - 'Where Is the Horse and the Rider '.wav
Peak level 71.0 %
Track quality 100.0 %
Test CRC 7A9D9014
Copy CRC 7A9D9014
Copy OK
Track 4
Filename N:\Music\The Lord Of The Rings Two Towers\Disc 3\04 - The Host of the Eldar.wav
Peak level 63.2 %
Track quality 99.9 %
Test CRC D0288359
Copy CRC D0288359
Copy OK
Track 5
Filename N:\Music\The Lord Of The Rings Two Towers\Disc 3\05 - The Battle of the Hornburg.wav
Peak level 98.8 %
Track quality 100.0 %
Test CRC 056A19D4
Copy CRC 056A19D4
Copy OK
Track 6
Filename N:\Music\The Lord Of The Rings Two Towers\Disc 3\06 - The Breach of the Deeping Wall.wav
Peak level 99.1 %
Track quality 100.0 %
Test CRC F8602696
Copy CRC F8602696
Copy OK
Track 7
Filename N:\Music\The Lord Of The Rings Two Towers\Disc 3\07 - The Entmoot Decides.wav
Peak level 26.0 %
Track quality 100.0 %
Test CRC EDAB7366
Copy CRC EDAB7366
Copy OK
Track 8
Filename N:\Music\The Lord Of The Rings Two Towers\Disc 3\08 - Retreat.wav
Peak level 98.9 %
Track quality 100.0 %
Test CRC C517D269
Copy CRC C517D269
Copy OK
Track 9
Filename N:\Music\The Lord Of The Rings Two Towers\Disc 3\09 - Master Peregrin's Plan.wav
Peak level 41.2 %
Track quality 100.0 %
Test CRC 51E7F7BA
Copy CRC 51E7F7BA
Copy OK
Track 10
Filename N:\Music\The Lord Of The Rings Two Towers\Disc 3\10 - The Last March of the Ents.wav
Peak level 68.0 %
Track quality 100.0 %
Test CRC CA90B53C
Copy CRC CA90B53C
Copy OK
Track 11
Filename N:\Music\The Lord Of The Rings Two Towers\Disc 3\11 - The Nazgыl Attack.wav
Peak level 95.7 %
Track quality 100.0 %
Test CRC FFBCCF3B
Copy CRC FFBCCF3B
Copy OK
Track 12
Filename N:\Music\The Lord Of The Rings Two Towers\Disc 3\12 - Thйoden Rides Forth.wav
Peak level 99.1 %
Track quality 100.0 %
Test CRC FDED477A
Copy CRC FDED477A
Copy OK
Track 13
Filename N:\Music\The Lord Of The Rings Two Towers\Disc 3\13 - The Tales That Really Matter.wav
Peak level 99.0 %
Track quality 100.0 %
Test CRC 523580C3
Copy CRC 523580C3
Copy OK
Track 14
Filename N:\Music\The Lord Of The Rings Two Towers\Disc 3\14 - 'Long Ways to Go Yet'.wav
Peak level 99.1 %
Track quality 100.0 %
Test CRC 62903BAF
Copy CRC 62903BAF
Copy OK
No errors occurred
End of status report

Содержание индексной карты (.CUE)

REM GENRE "Film Score"
REM DATE 2002
REM DISCID C80E5F0E
REM COMMENT "ExactAudioCopy v0.99pb4"
PERFORMER "Howard Shore"
TITLE "The Lord Of The Rings Two Towers [3]"
FILE "01 - Aragorn's Return.flac" WAVE
TRACK 01 AUDIO
TITLE "Aragorn's Return"
PERFORMER "Howard Shore"
INDEX 01 00:00:00
FILE "02 - War Is Upon Us.flac" WAVE
TRACK 02 AUDIO
TITLE "War Is Upon Us"
PERFORMER "Howard Shore"
INDEX 01 00:00:00
FILE "03 - 'Where Is the Horse and the Rider '.flac" WAVE
TRACK 03 AUDIO
TITLE "'Where Is the Horse and the Rider?'"
PERFORMER "Howard Shore"
INDEX 01 00:00:00
FILE "04 - The Host of the Eldar.flac" WAVE
TRACK 04 AUDIO
TITLE "The Host of the Eldar"
PERFORMER "Howard Shore"
INDEX 01 00:00:00
FILE "05 - The Battle of the Hornburg.flac" WAVE
TRACK 05 AUDIO
TITLE "The Battle of the Hornburg"
PERFORMER "Howard Shore"
INDEX 01 00:00:00
FILE "06 - The Breach of the Deeping Wall.flac" WAVE
TRACK 06 AUDIO
TITLE "The Breach of the Deeping Wall"
PERFORMER "Howard Shore"
INDEX 01 00:00:00
FILE "07 - The Entmoot Decides.flac" WAVE
TRACK 07 AUDIO
TITLE "The Entmoot Decides"
PERFORMER "Howard Shore"
INDEX 01 00:00:00
FILE "08 - Retreat.flac" WAVE
TRACK 08 AUDIO
TITLE "Retreat"
PERFORMER "Howard Shore"
INDEX 01 00:00:00
FILE "09 - Master Peregrin's Plan.flac" WAVE
TRACK 09 AUDIO
TITLE "Master Peregrin's Plan"
PERFORMER "Howard Shore"
INDEX 01 00:00:00
FILE "10 - The Last March of the Ents.flac" WAVE
TRACK 10 AUDIO
TITLE "The Last March of the Ents"
PERFORMER "Howard Shore"
INDEX 01 00:00:00
FILE "11 - The Nazgul Attack.flac" WAVE
TRACK 11 AUDIO
TITLE "The Nazgul Attack"
PERFORMER "Howard Shore"
INDEX 01 00:00:00
FILE "12 - Theoden Rides Forth.flac" WAVE
TRACK 12 AUDIO
TITLE "Theoden Rides Forth"
PERFORMER "Howard Shore"
INDEX 01 00:00:00
FILE "13 - The Tales That Really Matter.flac" WAVE
TRACK 13 AUDIO
TITLE "The Tales That Really Matter"
PERFORMER "Howard Shore"
INDEX 01 00:00:00
FILE "14 - 'Long Ways to Go Yet'.flac" WAVE
TRACK 14 AUDIO
TITLE "'Long Ways to Go Yet'"
PERFORMER "Howard Shore"
INDEX 01 00:00:00
Total time - 03:08:36

2007 - The Return of the King

CD 1

01. Roots And Beginnings (6:31)
02. Journey To The Cross-Roads (2:17)
03. The Road To Isengard (2:18)
04. The Foot Of Orthanc (4:45)
05. Return To Edoras (1:51)
06. The Chalice Passed (1:51)
07. The Green Dragon (0:35)
08. Gollum's Villainy (2:10)
09. Йowyn's Dream (1:24)
10. The Palantнr (3:10)
11. Flight From Edoras (2:19)
12. The Grace Of Undуmiel (6:21)
13. The Eyes Of The White Tower (4:33)
14. A Coronal Of Silver And Gold (8:27)
15. The Lighting Of The Beacons (9:03)

Лог создания рипа

Exact Audio Copy V0.99 prebeta 3 from 28. July 2007
EAC extraction logfile from 22. November 2007, 17:53
The Lord Of The Rings Soundtrack / The Lord Of The Rings - The Return Of The King - The Complete Recordings
Used drive : TSSTcorpCD/DVDW TS-H652D Adapter: 0 ID: 0
Read mode : Secure
Utilize accurate stream : Yes
Defeat audio cache : Yes
Make use of C2 pointers : No
Read offset correction : 6
Overread into Lead-In and Lead-Out : No
Fill up missing offset samples with silence : Yes
Delete leading and trailing silent blocks : No
Null samples used in CRC calculations : Yes
Used interface : Installed external ASPI interface
Gap handling : Appended to previous track
Used output format : User Defined Encoder
Selected bitrate : 192 kBit/s
Quality : High
Add ID3 tag : No
Command line compressor : C:\Program Files\FLAC\flac.exe
Additional command line options : -V -5 -T "artist=%a" -T "title=%t" -T "album=%g" -T "date=%y" -T "tracknumber=%n" -T "genre=%m" %s
TOC of the extracted CD
Track | Start | Length | Start sector | End sector
---------------------------------------------------------
1 | 0:00.00 | 6:31.34 | 0 | 29358
2 | 6:31.34 | 2:17.29 | 29359 | 39662
3 | 8:48.63 | 2:18.05 | 39663 | 50017
4 | 11:06.68 | 4:44.74 | 50018 | 71391
5 | 15:51.67 | 1:51.30 | 71392 | 79746
6 | 17:43.22 | 1:50.55 | 79747 | 88051
7 | 19:34.02 | 0:34.58 | 88052 | 90659
8 | 20:08.60 | 2:10.10 | 90660 | 100419
9 | 22:18.70 | 1:24.23 | 100420 | 106742
10 | 23:43.18 | 3:10.09 | 106743 | 121001
11 | 26:53.27 | 2:18.38 | 121002 | 131389
12 | 29:11.65 | 6:21.33 | 131390 | 159997
13 | 35:33.23 | 4:33.18 | 159998 | 180490
14 | 40:06.41 | 8:27.22 | 180491 | 218537
15 | 48:33.63 | 9:03.02 | 218538 | 259264
Track 1
Filename C:\EAC Imports\Howard Shore - The Lord of the Rings - The Return of the King (The Complete Recordings)\CD 1\01 - The Lord Of The Rings Soundtrack - Roots And Beginnings - The Lord Of The Rings Soundtrack.wav
Pre-gap length 0:00:02.00
Peak level 89.4 %
Track quality 100.0 %
Test CRC 362841EB
Copy CRC 362841EB
Copy OK
Track 2
Filename C:\EAC Imports\Howard Shore - The Lord of the Rings - The Return of the King (The Complete Recordings)\CD 1\02 - The Lord Of The Rings Soundtrack - Journey To The Cross-Roads - The Lord Of The Rings Soundtrack.wav
Peak level 45.0 %
Track quality 100.0 %
Test CRC 932B3820
Copy CRC 932B3820
Copy OK
Track 3
Filename C:\EAC Imports\Howard Shore - The Lord of the Rings - The Return of the King (The Complete Recordings)\CD 1\03 - The Lord Of The Rings Soundtrack - The Road To Isengard - The Lord Of The Rings Soundtrack.wav
Peak level 43.4 %
Track quality 100.0 %
Test CRC CB0C0022
Copy CRC CB0C0022
Copy OK
Track 4
Filename C:\EAC Imports\Howard Shore - The Lord of the Rings - The Return of the King (The Complete Recordings)\CD 1\04 - The Lord Of The Rings Soundtrack - The Foot Of Orthanc - The Lord Of The Rings Soundtrack.wav
Peak level 93.8 %
Track quality 100.0 %
Test CRC 4CC15924
Copy CRC 4CC15924
Copy OK
Track 5
Filename C:\EAC Imports\Howard Shore - The Lord of the Rings - The Return of the King (The Complete Recordings)\CD 1\05 - The Lord Of The Rings Soundtrack - Return To Edoras - The Lord Of The Rings Soundtrack.wav
Peak level 55.9 %
Track quality 100.0 %
Test CRC 2544721B
Copy CRC 2544721B
Copy OK
Track 6
Filename C:\EAC Imports\Howard Shore - The Lord of the Rings - The Return of the King (The Complete Recordings)\CD 1\06 - The Lord Of The Rings Soundtrack - The Chalice Passed - The Lord Of The Rings Soundtrack.wav
Peak level 56.6 %
Track quality 100.0 %
Test CRC 97434FCB
Copy CRC 97434FCB
Copy OK
Track 7
Filename C:\EAC Imports\Howard Shore - The Lord of the Rings - The Return of the King (The Complete Recordings)\CD 1\07 - The Lord Of The Rings Soundtrack - The Green Dragon - The Lord Of The Rings Soundtrack Featuring Billy Boyd And Dominic Monaghan.w
Peak level 31.1 %
Track quality 100.0 %
Test CRC 928DA5EB
Copy CRC 928DA5EB
Copy OK
Track 8
Filename C:\EAC Imports\Howard Shore - The Lord of the Rings - The Return of the King (The Complete Recordings)\CD 1\08 - The Lord Of The Rings Soundtrack - Gollum's Villainy - The Lord Of The Rings Soundtrack.wav
Peak level 80.1 %
Track quality 100.0 %
Test CRC 61AD64CD
Copy CRC 61AD64CD
Copy OK
Track 9
Filename C:\EAC Imports\Howard Shore - The Lord of the Rings - The Return of the King (The Complete Recordings)\CD 1\09 - The Lord Of The Rings Soundtrack - Йowyn's Dream - The Lord Of The Rings Soundtrack.wav
Peak level 20.7 %
Track quality 99.8 %
Test CRC 38090F7E
Copy CRC 38090F7E
Copy OK
Track 10
Filename C:\EAC Imports\Howard Shore - The Lord of the Rings - The Return of the King (The Complete Recordings)\CD 1\10 - The Lord Of The Rings Soundtrack - The Palantнr - The Lord Of The Rings Soundtrack.wav
Peak level 96.8 %
Track quality 100.0 %
Test CRC 51805868
Copy CRC 51805868
Copy OK
Track 11
Filename C:\EAC Imports\Howard Shore - The Lord of the Rings - The Return of the King (The Complete Recordings)\CD 1\11 - The Lord Of The Rings Soundtrack - Flight From Edoras - The Lord Of The Rings Soundtrack.wav
Peak level 73.8 %
Track quality 100.0 %
Test CRC C04512B8
Copy CRC C04512B8
Copy OK
Track 12
Filename C:\EAC Imports\Howard Shore - The Lord of the Rings - The Return of the King (The Complete Recordings)\CD 1\12 - The Lord Of The Rings Soundtrack - The Grace Of Undуmiel - The Lord Of The Rings Soundtrack Featuring Renйe Fleming.wav
Peak level 99.0 %
Track quality 100.0 %
Test CRC E114977B
Copy CRC E114977B
Copy OK
Track 13
Filename C:\EAC Imports\Howard Shore - The Lord of the Rings - The Return of the King (The Complete Recordings)\CD 1\13 - The Lord Of The Rings Soundtrack - The Eyes Of The White Tower - The Lord Of The Rings Soundtrack.wav
Peak level 88.5 %
Track quality 100.0 %
Test CRC 8A904CB8
Copy CRC 8A904CB8
Copy OK
Track 14
Filename C:\EAC Imports\Howard Shore - The Lord of the Rings - The Return of the King (The Complete Recordings)\CD 1\14 - The Lord Of The Rings Soundtrack - A Coronal Of Silver And Gold - The Lord Of The Rings Soundtrack.wav
Peak level 99.1 %
Track quality 100.0 %
Test CRC DB18448D
Copy CRC DB18448D
Copy OK
Track 15
Filename C:\EAC Imports\Howard Shore - The Lord of the Rings - The Return of the King (The Complete Recordings)\CD 1\15 - The Lord Of The Rings Soundtrack - The Lighting Of The Beacons - The Lord Of The Rings Soundtrack.wav
Peak level 99.1 %
Track quality 100.0 %
Test CRC ABD64999
Copy CRC ABD64999
Copy OK
No errors occurred
End of status report

Содержание индексной карты (.CUE)

REM DISCID B80D800F
REM COMMENT "ExactAudioCopy v0.99pb3"
PERFORMER "The Lord Of The Rings Soundtrack"
TITLE "The Lord Of The Rings - The Return Of The King - The Complete Recordings"
FILE "Howard Shore - 01 - Roots And Beginnings.flac" WAVE
TRACK 01 AUDIO
TITLE "Roots And Beginnings - The Lord Of The Rings Soundtrack"
PERFORMER "The Lord Of The Rings Soundtrack"
INDEX 01 00:00:00
FILE "Howard Shore - 02 - Journey To The Cross-roads.flac" WAVE
TRACK 02 AUDIO
TITLE "Journey To The Cross-Roads - The Lord Of The Rings Soundtrack"
PERFORMER "The Lord Of The Rings Soundtrack"
INDEX 01 00:00:00
FILE "Howard Shore - 03 - The Road To Isengard.flac" WAVE
TRACK 03 AUDIO
TITLE "The Road To Isengard - The Lord Of The Rings Soundtrack"
PERFORMER "The Lord Of The Rings Soundtrack"
INDEX 01 00:00:00
FILE "Howard Shore - 04 - The Foot Of Orthanc.flac" WAVE
TRACK 04 AUDIO
TITLE "The Foot Of Orthanc - The Lord Of The Rings Soundtrack"
PERFORMER "The Lord Of The Rings Soundtrack"
INDEX 01 00:00:00
FILE "Howard Shore - 05 - Return To Edoras.flac" WAVE
TRACK 05 AUDIO
TITLE "Return To Edoras - The Lord Of The Rings Soundtrack"
PERFORMER "The Lord Of The Rings Soundtrack"
INDEX 01 00:00:00
FILE "Howard Shore - 06 - The Chalice Passed.flac" WAVE
TRACK 06 AUDIO
TITLE "The Chalice Passed - The Lord Of The Rings Soundtrack"
PERFORMER "The Lord Of The Rings Soundtrack"
INDEX 01 00:00:00
FILE "Howard Shore - 07 - The Green Dragon (Featuring Billy Boyd And Dominic Monaghan).flac" WAVE
TRACK 07 AUDIO
TITLE "The Green Dragon - The Lord Of The Rings Soundtrack Featuring Billy Boyd And ..."
PERFORMER "The Lord Of The Rings Soundtrack"
INDEX 01 00:00:00
FILE "Howard Shore - 08 - Gollum's Villainy.flac" WAVE
TRACK 08 AUDIO
TITLE "Gollum's Villainy - The Lord Of The Rings Soundtrack"
PERFORMER "The Lord Of The Rings Soundtrack"
INDEX 01 00:00:00
FILE "Howard Shore - 09 - Eowyn's Dream.flac" WAVE
TRACK 09 AUDIO
TITLE "Eowyn's Dream - The Lord Of The Rings Soundtrack"
PERFORMER "The Lord Of The Rings Soundtrack"
INDEX 01 00:00:00
FILE "Howard Shore - 10 - The Palantir.flac" WAVE
TRACK 10 AUDIO
TITLE "The Palantir - The Lord Of The Rings Soundtrack"
PERFORMER "The Lord Of The Rings Soundtrack"
INDEX 01 00:00:00
FILE "Howard Shore - 11 - Flight From Edoras.flac" WAVE
TRACK 11 AUDIO
TITLE "Flight From Edoras - The Lord Of The Rings Soundtrack"
PERFORMER "The Lord Of The Rings Soundtrack"
INDEX 01 00:00:00
FILE "Howard Shore - 12 - The Grace Of Undomiel (Featuring Renee Fleming).flac" WAVE
TRACK 12 AUDIO
TITLE "The Grace Of Undomiel - The Lord Of The Rings Soundtrack Featuring Renee Fleming"
PERFORMER "The Lord Of The Rings Soundtrack"
INDEX 01 00:00:00
FILE "Howard Shore - 13 - The Eyes Of The White Tower.flac" WAVE
TRACK 13 AUDIO
TITLE "The Eyes Of The White Tower - The Lord Of The Rings Soundtrack"
PERFORMER "The Lord Of The Rings Soundtrack"
INDEX 01 00:00:00
FILE "Howard Shore - 14 - A Coronal Of Silver And Gold.flac" WAVE
TRACK 14 AUDIO
TITLE "A Coronal Of Silver And Gold - The Lord Of The Rings Soundtrack"
PERFORMER "The Lord Of The Rings Soundtrack"
INDEX 01 00:00:00
FILE "Howard Shore - 15 - The Lighting Of The Beacons.flac" WAVE
TRACK 15 AUDIO
TITLE "The Lighting Of The Beacons - The Lord Of The Rings Soundtrack"
PERFORMER "The Lord Of The Rings Soundtrack"
INDEX 01 00:00:00

CD 2

01. Osgiliath Invaded (8:47)
02. The Stairs Of Cirith Ungol (2:41)
03. Allegiance To Denethor (3:20)
04. The Sacrifice Of Faramir (4:08)
05. The Parting Of Sam And Frodo (4:04)
06. Marshalling At Dunharrow (4:57)
07. Andъril - Flame Of The West (3:28)
08. The Passing Of The Grey Company (4:12)
09. Dwimorberg - The Haunted Mountain (2:26)
10. Master Meriadoc, Swordthain (1:40)
11. The Paths Of The Dead (6:22)
12. The Siege Of Gondor (9:01)
13. Shelob's Lair (8:53)
14. Merry's Simple Courage (2:09)

Лог создания рипа

Exact Audio Copy V0.99 prebeta 3 from 28. July 2007
EAC extraction logfile from 22. November 2007, 18:20
The Lord Of The Rings Soundtrack / The Lord Of The Rings - The Return Of The King - The Complete Recordings
Used drive : TSSTcorpCD/DVDW TS-H652D Adapter: 0 ID: 0
Read mode : Secure
Utilize accurate stream : Yes
Defeat audio cache : Yes
Make use of C2 pointers : No
Read offset correction : 6
Overread into Lead-In and Lead-Out : No
Fill up missing offset samples with silence : Yes
Delete leading and trailing silent blocks : No
Null samples used in CRC calculations : Yes
Used interface : Installed external ASPI interface
Gap handling : Appended to previous track
Used output format : User Defined Encoder
Selected bitrate : 192 kBit/s
Quality : High
Add ID3 tag : No
Command line compressor : C:\Program Files\FLAC\flac.exe
Additional command line options : -V -5 -T "artist=%a" -T "title=%t" -T "album=%g" -T "date=%y" -T "tracknumber=%n" -T "genre=%m" %s
TOC of the extracted CD
Track | Start | Length | Start sector | End sector
---------------------------------------------------------
1 | 0:00.00 | 8:47.36 | 0 | 39560
2 | 8:47.36 | 2:40.68 | 39561 | 51628
3 | 11:28.29 | 3:19.74 | 51629 | 66627
4 | 14:48.28 | 4:08.37 | 66628 | 85264
5 | 18:56.65 | 4:04.26 | 85265 | 103590
6 | 23:01.16 | 4:56.39 | 103591 | 125829
7 | 27:57.55 | 3:27.39 | 125830 | 141393
8 | 31:25.19 | 4:12.26 | 141394 | 160319
9 | 35:37.45 | 2:26.22 | 160320 | 171291
10 | 38:03.67 | 1:39.59 | 171292 | 178775
11 | 39:43.51 | 6:22.16 | 178776 | 207441
12 | 46:05.67 | 9:01.11 | 207442 | 248027
13 | 55:07.03 | 8:53.33 | 248028 | 288035
14 | 64:00.36 | 2:08.45 | 288036 | 297680
Track 1
Filename C:\EAC Imports\Howard Shore - The Lord of the Rings - The Return of the King (The Complete Recordings)\CD 2\01 - The Lord Of The Rings Soundtrack - Osgiliath Invaded - The Lord Of The Rings Soundtrack Featuring Ben Del Maestro.wav
Pre-gap length 0:00:02.00
Peak level 96.6 %
Track quality 100.0 %
Test CRC DE769A11
Copy CRC DE769A11
Copy OK
Track 2
Filename C:\EAC Imports\Howard Shore - The Lord of the Rings - The Return of the King (The Complete Recordings)\CD 2\02 - The Lord Of The Rings Soundtrack - The Stairs Of Cirith Ungol - The Lord Of The Rings Soundtrack.wav
Peak level 63.0 %
Track quality 100.0 %
Test CRC 08833D0A
Copy CRC 08833D0A
Copy OK
Track 3
Filename C:\EAC Imports\Howard Shore - The Lord of the Rings - The Return of the King (The Complete Recordings)\CD 2\03 - The Lord Of The Rings Soundtrack - Allegiance To Denethor - The Lord Of The Rings Soundtrack.wav
Peak level 81.4 %
Track quality 100.0 %
Test CRC EC97C4F3
Copy CRC EC97C4F3
Copy OK
Track 4
Filename C:\EAC Imports\Howard Shore - The Lord of the Rings - The Return of the King (The Complete Recordings)\CD 2\04 - The Lord Of The Rings Soundtrack - The Sacrifice Of Faramir - The Lord Of The Rings Soundtrack Featuring Billy Boyd.wav
Peak level 82.7 %
Track quality 100.0 %
Test CRC A7ED9617
Copy CRC A7ED9617
Copy OK
Track 5
Filename C:\EAC Imports\Howard Shore - The Lord of the Rings - The Return of the King (The Complete Recordings)\CD 2\05 - The Lord Of The Rings Soundtrack - The Parting Of Sam And Frodo - The Lord Of The Rings Soundtrack.wav
Peak level 93.7 %
Track quality 100.0 %
Test CRC 76B2A571
Copy CRC 76B2A571
Copy OK
Track 6
Filename C:\EAC Imports\Howard Shore - The Lord of the Rings - The Return of the King (The Complete Recordings)\CD 2\06 - The Lord Of The Rings Soundtrack - Marshalling At Dunharrow - The Lord Of The Rings Soundtrack.wav
Peak level 78.6 %
Track quality 99.9 %
Test CRC 5E29A623
Copy CRC 5E29A623
Copy OK
Track 7
Filename C:\EAC Imports\Howard Shore - The Lord of the Rings - The Return of the King (The Complete Recordings)\CD 2\07 - The Lord Of The Rings Soundtrack - Andъril - Flame Of The West - The Lord Of The Rings Soundtrack.wav
Peak level 98.0 %
Track quality 99.9 %
Test CRC E3C765A5
Copy CRC E3C765A5
Copy OK
Track 8
Filename C:\EAC Imports\Howard Shore - The Lord of the Rings - The Return of the King (The Complete Recordings)\CD 2\08 - The Lord Of The Rings Soundtrack - The Passing Of The Grey Company - The Lord Of The Rings Soundtrack.wav
Peak level 35.5 %
Track quality 99.9 %
Test CRC 74F28068
Copy CRC 74F28068
Copy OK
Track 9
Filename C:\EAC Imports\Howard Shore - The Lord of the Rings - The Return of the King (The Complete Recordings)\CD 2\09 - The Lord Of The Rings Soundtrack - Dwimorberg - The Haunted Mountain - The Lord Of The Rings Soundtrack.wav
Peak level 78.1 %
Track quality 100.0 %
Test CRC B17051AC
Copy CRC B17051AC
Copy OK
Track 10
Filename C:\EAC Imports\Howard Shore - The Lord of the Rings - The Return of the King (The Complete Recordings)\CD 2\10 - The Lord Of The Rings Soundtrack - Master Meriadoc, Swordthain - The Lord Of The Rings Soundtrack.wav
Peak level 98.8 %
Track quality 100.0 %
Test CRC A8BC136E
Copy CRC A8BC136E
Copy OK
Track 11
Filename C:\EAC Imports\Howard Shore - The Lord of the Rings - The Return of the King (The Complete Recordings)\CD 2\11 - The Lord Of The Rings Soundtrack - The Paths Of The Dead - The Lord Of The Rings Soundtrack.wav
Peak level 99.1 %
Track quality 99.9 %
Test CRC 4B8671FA
Copy CRC 4B8671FA
Copy OK
Track 12
Filename C:\EAC Imports\Howard Shore - The Lord of the Rings - The Return of the King (The Complete Recordings)\CD 2\12 - The Lord Of The Rings Soundtrack - The Siege Of Gondor - The Lord Of The Rings Soundtrack.wav
Peak level 99.1 %
Track quality 100.0 %
Test CRC BF0402E0
Copy CRC BF0402E0
Copy OK
Track 13
Filename C:\EAC Imports\Howard Shore - The Lord of the Rings - The Return of the King (The Complete Recordings)\CD 2\13 - The Lord Of The Rings Soundtrack - Shelob's Lair - The Lord Of The Rings Soundtrack.wav
Peak level 96.0 %
Track quality 100.0 %
Test CRC E8B66684
Copy CRC E8B66684
Copy OK
Track 14
Filename C:\EAC Imports\Howard Shore - The Lord of the Rings - The Return of the King (The Complete Recordings)\CD 2\14 - The Lord Of The Rings Soundtrack - Merry's Simple Courage - The Lord Of The Rings Soundtrack.wav
Peak level 79.1 %
Track quality 100.0 %
Test CRC 1C2D0F8B
Copy CRC 1C2D0F8B
Copy OK
No errors occurred
End of status report

Содержание индексной карты (.CUE)

REM DISCID E50F810E
REM COMMENT "ExactAudioCopy v0.99pb3"
PERFORMER "The Lord Of The Rings Soundtrack"
TITLE "The Lord Of The Rings - The Return Of The King - The Complete Recordings"
FILE "Howard Shore - 01 - Osgiliath Invaded (Featuring Ben Del Maestro).flac" WAVE
TRACK 01 AUDIO
TITLE "Osgiliath Invaded - The Lord Of The Rings Soundtrack Featuring Ben Del Maestro"
PERFORMER "The Lord Of The Rings Soundtrack"
INDEX 01 00:00:00
FILE "Howard Shore - 02 - The Stairs Of Cirith Ungol.flac" WAVE
TRACK 02 AUDIO
TITLE "The Stairs Of Cirith Ungol - The Lord Of The Rings Soundtrack"
PERFORMER "The Lord Of The Rings Soundtrack"
INDEX 01 00:00:00
FILE "Howard Shore - 03 - Allegiance To Denethor.flac" WAVE
TRACK 03 AUDIO
TITLE "Allegiance To Denethor - The Lord Of The Rings Soundtrack"
PERFORMER "The Lord Of The Rings Soundtrack"
INDEX 01 00:00:00
FILE "Howard Shore - 04 - The Sacrifice Of Faramir (Featuring Billy Boyd).flac" WAVE
TRACK 04 AUDIO
TITLE "The Sacrifice Of Faramir - The Lord Of The Rings Soundtrack Featuring Billy Boyd"
PERFORMER "The Lord Of The Rings Soundtrack"
INDEX 01 00:00:00
FILE "Howard Shore - 05 - The Parting Of Sam And Frodo.flac" WAVE
TRACK 05 AUDIO
TITLE "The Parting Of Sam And Frodo - The Lord Of The Rings Soundtrack"
PERFORMER "The Lord Of The Rings Soundtrack"
INDEX 01 00:00:00
FILE "Howard Shore - 06 - Marshalling At Dunharrow.flac" WAVE
TRACK 06 AUDIO
TITLE "Marshalling At Dunharrow - The Lord Of The Rings Soundtrack"
PERFORMER "The Lord Of The Rings Soundtrack"
INDEX 01 00:00:00
FILE "Howard Shore - 07 - Anduril - Flame Of The West.flac" WAVE
TRACK 07 AUDIO
TITLE "Anduril - Flame Of The West - The Lord Of The Rings Soundtrack"
PERFORMER "The Lord Of The Rings Soundtrack"
INDEX 01 00:00:00
FILE "Howard Shore - 08 - The Passing Of The Grey Company.flac" WAVE
TRACK 08 AUDIO
TITLE "The Passing Of The Grey Company - The Lord Of The Rings Soundtrack"
PERFORMER "The Lord Of The Rings Soundtrack"
INDEX 01 00:00:00
FILE "Howard Shore - 09 - Dwimorberg - The Haunted Mountain.flac" WAVE
TRACK 09 AUDIO
TITLE "Dwimorberg - The Haunted Mountain - The Lord Of The Rings Soundtrack"
PERFORMER "The Lord Of The Rings Soundtrack"
INDEX 01 00:00:00
FILE "Howard Shore - 10 - Master Meriadoc, Swordthain.flac" WAVE
TRACK 10 AUDIO
TITLE "Master Meriadoc, Swordthain - The Lord Of The Rings Soundtrack"
PERFORMER "The Lord Of The Rings Soundtrack"
INDEX 01 00:00:00
FILE "Howard Shore - 11 - The Paths Of The Dead.flac" WAVE
TRACK 11 AUDIO
TITLE "The Paths Of The Dead - The Lord Of The Rings Soundtrack"
PERFORMER "The Lord Of The Rings Soundtrack"
INDEX 01 00:00:00
FILE "Howard Shore - 12 - The Siege Of Gondor.flac" WAVE
TRACK 12 AUDIO
TITLE "The Siege Of Gondor - The Lord Of The Rings Soundtrack"
PERFORMER "The Lord Of The Rings Soundtrack"
INDEX 01 00:00:00
FILE "Howard Shore - 13 - Shelob's Lair.flac" WAVE
TRACK 13 AUDIO
TITLE "Shelob's Lair - The Lord Of The Rings Soundtrack"
PERFORMER "The Lord Of The Rings Soundtrack"
INDEX 01 00:00:00
FILE "Howard Shore - 14 - Merry's Simple Courage.flac" WAVE
TRACK 14 AUDIO
TITLE "Merry's Simple Courage - The Lord Of The Rings Soundtrack"
PERFORMER "The Lord Of The Rings Soundtrack"
INDEX 01 00:00:00

CD 3

01. Grond - The Hammer Of The Underworld (1:33)
02. Shelob The Great (5:13)
03. The Tomb Of The Stewards (3:58)
04. The Battle Of The Pelennor Fields (4:10)
05. The Pyre Of Denethor (2:59)
06. The Mыmakil (0:57)
07. Dernhelm In Battle (2:06)
08. ''A Far Green Country'' (1:28)
09. Shieldmaiden Of Rohan (5:07)
10. The Passing Of Thйoden (2:16)
11. The Houses Of Healing (2:58)
12. The Tower Of Cirith Ungol (4:41)
13. The Last Debate (4:21)
14. The Land Of Shadow (6:29)
15. The Mouth Of Sauron (8:16)
16. ''For Frodo'' (3:17)

Лог создания рипа

Exact Audio Copy V0.99 prebeta 3 from 28. July 2007
EAC extraction logfile from 22. November 2007, 18:53
Howard Shore / Lord Of The Rings, The: The Return Of The King (The Complete Recordings) Disc 3
Used drive : TSSTcorpCD/DVDW TS-H652D Adapter: 0 ID: 0
Read mode : Secure
Utilize accurate stream : Yes
Defeat audio cache : Yes
Make use of C2 pointers : No
Read offset correction : 6
Overread into Lead-In and Lead-Out : No
Fill up missing offset samples with silence : Yes
Delete leading and trailing silent blocks : No
Null samples used in CRC calculations : Yes
Used interface : Installed external ASPI interface
Gap handling : Appended to previous track
Used output format : User Defined Encoder
Selected bitrate : 192 kBit/s
Quality : High
Add ID3 tag : No
Command line compressor : C:\Program Files\FLAC\flac.exe
Additional command line options : -V -5 -T "artist=%a" -T "title=%t" -T "album=%g" -T "date=%y" -T "tracknumber=%n" -T "genre=%m" %s
TOC of the extracted CD
Track | Start | Length | Start sector | End sector
---------------------------------------------------------
1 | 0:00.00 | 1:32.64 | 0 | 6963
2 | 1:32.64 | 5:12.73 | 6964 | 30436
3 | 6:45.62 | 3:58.23 | 30437 | 48309
4 | 10:44.10 | 4:10.03 | 48310 | 67062
5 | 14:54.13 | 2:59.34 | 67063 | 80521
6 | 17:53.47 | 0:57.33 | 80522 | 84829
7 | 18:51.05 | 2:06.01 | 84830 | 94280
8 | 20:57.06 | 1:27.69 | 94281 | 100874
9 | 22:25.00 | 5:07.08 | 100875 | 123907
10 | 27:32.08 | 2:16.24 | 123908 | 134131
11 | 29:48.32 | 2:58.32 | 134132 | 147513
12 | 32:46.64 | 4:41.31 | 147514 | 168619
13 | 37:28.20 | 4:21.33 | 168620 | 188227
14 | 41:49.53 | 6:29.20 | 188228 | 217422
15 | 48:18.73 | 8:15.65 | 217423 | 254612
16 | 56:34.63 | 3:16.65 | 254613 | 269377
Track 1
Filename C:\EAC Imports\Howard Shore - The Lord of the Rings - The Return of the King (The Complete Recordings)\CD 3\01 - Howard Shore - Grond - The Hammer Of The Underworld.wav
Pre-gap length 0:00:02.00
Peak level 99.1 %
Track quality 100.0 %
Test CRC F3381772
Copy CRC F3381772
Copy OK
Track 2
Filename C:\EAC Imports\Howard Shore - The Lord of the Rings - The Return of the King (The Complete Recordings)\CD 3\02 - Howard Shore - Shelob The Great.wav
Peak level 98.9 %
Track quality 100.0 %
Test CRC 40C135D1
Copy CRC 40C135D1
Copy OK
Track 3
Filename C:\EAC Imports\Howard Shore - The Lord of the Rings - The Return of the King (The Complete Recordings)\CD 3\03 - Howard Shore - The Tomb Of The Stewards.wav
Peak level 93.2 %
Track quality 100.0 %
Test CRC B6451739
Copy CRC B6451739
Copy OK
Track 4
Filename C:\EAC Imports\Howard Shore - The Lord of the Rings - The Return of the King (The Complete Recordings)\CD 3\04 - Howard Shore - The Battle Of The Pelennor Fields.wav
Peak level 99.1 %
Track quality 99.9 %
Test CRC 78E344DE
Copy CRC 78E344DE
Copy OK
Track 5
Filename C:\EAC Imports\Howard Shore - The Lord of the Rings - The Return of the King (The Complete Recordings)\CD 3\05 - Howard Shore - The Pyre Of Denethor.wav
Peak level 86.7 %
Track quality 100.0 %
Test CRC CCDAEC39
Copy CRC CCDAEC39
Copy OK
Track 6
Filename C:\EAC Imports\Howard Shore - The Lord of the Rings - The Return of the King (The Complete Recordings)\CD 3\06 - Howard Shore - The Mыmakil.wav
Peak level 93.0 %
Track quality 99.8 %
Test CRC CBCC9ACD
Copy CRC CBCC9ACD
Copy OK
Track 7
Filename C:\EAC Imports\Howard Shore - The Lord of the Rings - The Return of the King (The Complete Recordings)\CD 3\07 - Howard Shore - Dernhelm In Battle.wav
Peak level 99.0 %
Track quality 100.0 %
Test CRC 0D3F0CD8
Copy CRC 0D3F0CD8
Copy OK
Track 8
Filename C:\EAC Imports\Howard Shore - The Lord of the Rings - The Return of the King (The Complete Recordings)\CD 3\08 - Howard Shore - A Far Green Country.wav
Peak level 85.6 %
Track quality 100.0 %
Test CRC F2DABAFB
Copy CRC F2DABAFB
Copy OK
Track 9
Filename C:\EAC Imports\Howard Shore - The Lord of the Rings - The Return of the King (The Complete Recordings)\CD 3\09 - Howard Shore - Shieldmaiden Of Rohan.wav
Peak level 99.1 %
Track quality 100.0 %
Test CRC E9C56C50
Copy CRC E9C56C50
Copy OK
Track 10
Filename C:\EAC Imports\Howard Shore - The Lord of the Rings - The Return of the King (The Complete Recordings)\CD 3\10 - Howard Shore - The Passing Of Thйoden.wav
Peak level 28.2 %
Track quality 100.0 %
Test CRC BD799E74
Copy CRC BD799E74
Copy OK
Track 11
Filename C:\EAC Imports\Howard Shore - The Lord of the Rings - The Return of the King (The Complete Recordings)\CD 3\11 - Howard Shore - The Houses Of Healing.wav
Peak level 29.9 %
Track quality 100.0 %
Test CRC 68AF2F93
Copy CRC 68AF2F93
Copy OK
Track 12
Filename C:\EAC Imports\Howard Shore - The Lord of the Rings - The Return of the King (The Complete Recordings)\CD 3\12 - Howard Shore - The Tower Of Cirith Ungol.wav
Peak level 89.1 %
Track quality 100.0 %
Test CRC C63B04FA
Copy CRC C63B04FA
Copy OK
Track 13
Filename C:\EAC Imports\Howard Shore - The Lord of the Rings - The Return of the King (The Complete Recordings)\CD 3\13 - Howard Shore - The Last Debate.wav
Peak level 49.9 %
Track quality 100.0 %
Test CRC 2262663A
Copy CRC 2262663A
Copy OK
Track 14
Filename C:\EAC Imports\Howard Shore - The Lord of the Rings - The Return of the King (The Complete Recordings)\CD 3\14 - Howard Shore - The Land Of Shadow.wav
Peak level 99.1 %
Track quality 100.0 %
Test CRC 64D3C65A
Copy CRC 64D3C65A
Copy OK
Track 15
Filename C:\EAC Imports\Howard Shore - The Lord of the Rings - The Return of the King (The Complete Recordings)\CD 3\15 - Howard Shore - The Mouth Of Sauron.wav
Peak level 98.4 %
Track quality 100.0 %
Test CRC 1E15760D
Copy CRC 1E15760D
Copy OK
Track 16
Filename C:\EAC Imports\Howard Shore - The Lord of the Rings - The Return of the King (The Complete Recordings)\CD 3\16 - Howard Shore - For Frodo.wav
Peak level 96.7 %
Track quality 100.0 %
Test CRC 337116C1
Copy CRC 337116C1
Copy OK
No errors occurred
End of status report

Содержание индексной карты (.CUE)

REM GENRE Soundtrack
REM DATE 2003
REM DISCID E10E0710
REM COMMENT "ExactAudioCopy v0.99pb3"
PERFORMER "Howard Shore"
TITLE "Lord Of The Rings, The: The Return Of The King (The Complete Recordings) Disc 3"
FILE "Howard Shore - 01 - Grond - The Hammer Of The Underworld.flac" WAVE
TRACK 01 AUDIO
TITLE "Grond - The Hammer Of The Underworld"
PERFORMER "Howard Shore"
INDEX 01 00:00:00
FILE "Howard Shore - 02 - Shelob The Great.flac" WAVE
TRACK 02 AUDIO
TITLE "Shelob The Great"
PERFORMER "Howard Shore"
INDEX 01 00:00:00
FILE "Howard Shore - 03 - The Tomb Of The Stewards.flac" WAVE
TRACK 03 AUDIO
TITLE "The Tomb Of The Stewards"
PERFORMER "Howard Shore"
INDEX 01 00:00:00
FILE "Howard Shore - 04 - The Battle Of The Pelennor Fields.flac" WAVE
TRACK 04 AUDIO
TITLE "The Battle Of The Pelennor Fields"
PERFORMER "Howard Shore"
INDEX 01 00:00:00
FILE "Howard Shore - 05 - The Pyre Of Denethor.flac" WAVE
TRACK 05 AUDIO
TITLE "The Pyre Of Denethor"
PERFORMER "Howard Shore"
INDEX 01 00:00:00
FILE "Howard Shore - 06 - The Mumakil.flac" WAVE
TRACK 06 AUDIO
TITLE "The Mumakil"
PERFORMER "Howard Shore"
INDEX 01 00:00:00
FILE "Howard Shore - 07 - Dernhelm In Battle.flac" WAVE
TRACK 07 AUDIO
TITLE "Dernhelm In Battle"
PERFORMER "Howard Shore"
INDEX 01 00:00:00
FILE "Howard Shore - 08 - A Far Green Country.flac" WAVE
TRACK 08 AUDIO
TITLE "A Far Green Country"
PERFORMER "Howard Shore"
INDEX 01 00:00:00
FILE "Howard Shore - 09 - Shieldmaiden Of Rohan.flac" WAVE
TRACK 09 AUDIO
TITLE "Shieldmaiden Of Rohan"
PERFORMER "Howard Shore"
INDEX 01 00:00:00
FILE "Howard Shore - 10 - The Passing Of Theoden.flac" WAVE
TRACK 10 AUDIO
TITLE "The Passing Of Theoden"
PERFORMER "Howard Shore"
INDEX 01 00:00:00
FILE "Howard Shore - 11 - The Houses Of Healing (Featuring Liv Tyler).flac" WAVE
TRACK 11 AUDIO
TITLE "The Houses Of Healing"
PERFORMER "Howard Shore"
INDEX 01 00:00:00
FILE "Howard Shore - 12 - The Tower Of Cirith Ungol.flac" WAVE
TRACK 12 AUDIO
TITLE "The Tower Of Cirith Ungol"
PERFORMER "Howard Shore"
INDEX 01 00:00:00
FILE "Howard Shore - 13 - The Last Debate (Featuring Sissel).flac" WAVE
TRACK 13 AUDIO
TITLE "The Last Debate"
PERFORMER "Howard Shore"
INDEX 01 00:00:00
FILE "Howard Shore - 14 - The Land Of Shadow.flac" WAVE
TRACK 14 AUDIO
TITLE "The Land Of Shadow"
PERFORMER "Howard Shore"
INDEX 01 00:00:00
FILE "Howard Shore - 15 - The Mouth Of Sauron (Featuring Sir James Galway).flac" WAVE
TRACK 15 AUDIO
TITLE "The Mouth Of Sauron"
PERFORMER "Howard Shore"
INDEX 01 00:00:00
FILE "Howard Shore - 16 - For Frodo (Featuring Ben Del Maestro).flac" WAVE
TRACK 16 AUDIO
TITLE "For Frodo"
PERFORMER "Howard Shore"
INDEX 01 00:00:00

CD 4

01. Mount Doom (4:09)
02. The Crack Of Doom (4:02)
03. The Eagles (2:24)
04. The Fellowship Reunited (12:18)
05. The Journey To The Grey Havens (7:35)
06. Elanor (1:28)
07. Days Of The Ring (11:10)
08. Bilbo's Song (2:58)

Лог создания рипа

Exact Audio Copy V0.99 prebeta 3 from 28. July 2007
EAC extraction logfile from 22. November 2007, 19:12
Howard Shore / Lord Of The Rings, The: The Return Of The King (The Complete Recordings) Disc 4
Used drive : TSSTcorpCD/DVDW TS-H652D Adapter: 0 ID: 0
Read mode : Secure
Utilize accurate stream : Yes
Defeat audio cache : Yes
Make use of C2 pointers : No
Read offset correction : 6
Overread into Lead-In and Lead-Out : No
Fill up missing offset samples with silence : Yes
Delete leading and trailing silent blocks : No
Null samples used in CRC calculations : Yes
Used interface : Installed external ASPI interface
Gap handling : Appended to previous track
Used output format : User Defined Encoder
Selected bitrate : 192 kBit/s
Quality : High
Add ID3 tag : No
Command line compressor : C:\Program Files\FLAC\flac.exe
Additional command line options : -V -5 -T "artist=%a" -T "title=%t" -T "album=%g" -T "date=%y" -T "tracknumber=%n" -T "genre=%m" %s
TOC of the extracted CD
Track | Start | Length | Start sector | End sector
---------------------------------------------------------
1 | 0:00.00 | 4:09.00 | 0 | 18674
2 | 4:09.00 | 4:01.54 | 18675 | 36803
3 | 8:10.54 | 2:23.55 | 36804 | 47583
4 | 10:34.34 | 12:18.06 | 47584 | 102939
5 | 22:52.40 | 7:34.39 | 102940 | 137028
6 | 30:27.04 | 1:27.65 | 137029 | 143618
7 | 31:54.69 | 11:09.42 | 143619 | 193835
8 | 43:04.36 | 2:57.58 | 193836 | 207168
Track 1
Filename C:\EAC Imports\Howard Shore - The Lord of the Rings - The Return of the King (The Complete Recordings)\CD 4\01 - Howard Shore - Mount Doom.wav
Pre-gap length 0:00:02.00
Peak level 97.6 %
Track quality 100.0 %
Test CRC DCB921C4
Copy CRC DCB921C4
Copy OK
Track 2
Filename C:\EAC Imports\Howard Shore - The Lord of the Rings - The Return of the King (The Complete Recordings)\CD 4\02 - Howard Shore - The Crack Of Doom.wav
Peak level 99.1 %
Track quality 99.9 %
Test CRC 06C26031
Copy CRC 06C26031
Copy OK
Track 3
Filename C:\EAC Imports\Howard Shore - The Lord of the Rings - The Return of the King (The Complete Recordings)\CD 4\03 - Howard Shore - The Eagles.wav
Peak level 47.5 %
Track quality 100.0 %
Test CRC 49098BF3
Copy CRC 49098BF3
Copy OK
Track 4
Filename C:\EAC Imports\Howard Shore - The Lord of the Rings - The Return of the King (The Complete Recordings)\CD 4\04 - Howard Shore - The Fellowship Reunited.wav
Peak level 88.6 %
Track quality 100.0 %
Test CRC 0EACB2DE
Copy CRC 0EACB2DE
Copy OK
Track 5
Filename C:\EAC Imports\Howard Shore - The Lord of the Rings - The Return of the King (The Complete Recordings)\CD 4\05 - Howard Shore - The Journey To The Grey Havens.wav
Peak level 29.3 %
Track quality 100.0 %
Test CRC D2DA8215
Copy CRC D2DA8215
Copy OK
Track 6
Filename C:\EAC Imports\Howard Shore - The Lord of the Rings - The Return of the King (The Complete Recordings)\CD 4\06 - Howard Shore - Elanor.wav
Peak level 63.8 %
Track quality 100.0 %
Test CRC 1EAA4FC0
Copy CRC 1EAA4FC0
Copy OK
Track 7
Filename C:\EAC Imports\Howard Shore - The Lord of the Rings - The Return of the King (The Complete Recordings)\CD 4\07 - Howard Shore - Days Of The Ring (Featuring 'Into The West').wav
Peak level 99.0 %
Track quality 100.0 %
Test CRC A0AE60DE
Copy CRC A0AE60DE
Copy OK
Track 8
Filename C:\EAC Imports\Howard Shore - The Lord of the Rings - The Return of the King (The Complete Recordings)\CD 4\08 - Howard Shore - Bilbo's Song.wav
Peak level 41.8 %
Track quality 100.0 %
Test CRC 32170F7C
Copy CRC 32170F7C
Copy OK
No errors occurred
End of status report

Содержание индексной карты (.CUE)

REM GENRE Soundtrack
REM DATE 2003
REM DISCID 710ACA08
REM COMMENT "ExactAudioCopy v0.99pb3"
PERFORMER "Howard Shore"
TITLE "Lord Of The Rings, The: The Return Of The King (The Complete Recordings) Disc 4"
FILE "Howard Shore - 01 - Mount Doom (Featuring Renee Fleming).flac" WAVE
TRACK 01 AUDIO
TITLE "Mount Doom"
PERFORMER "Howard Shore"
INDEX 01 00:00:00
FILE "Howard Shore - 02 - The Crack Of Doom.flac" WAVE
TRACK 02 AUDIO
TITLE "The Crack Of Doom"
PERFORMER "Howard Shore"
INDEX 01 00:00:00
FILE "Howard Shore - 03 - The Eagles (Featuring Renee Fleming).flac" WAVE
TRACK 03 AUDIO
TITLE "The Eagles"
PERFORMER "Howard Shore"
INDEX 01 00:00:00
FILE "Howard Shore - 04 - The Fellowship Reunited (Featuring Sir James Galway, Viggo Mortensen, and Renee Fleming).flac" WAVE
TRACK 04 AUDIO
TITLE "The Fellowship Reunited"
PERFORMER "Howard Shore"
INDEX 01 00:00:00
FILE "Howard Shore - 05 - The Journey To The Grey Havens (Featuring Sir James Galway).flac" WAVE
TRACK 05 AUDIO
TITLE "The Journey To The Grey Havens"
PERFORMER "Howard Shore"
INDEX 01 00:00:00
FILE "Howard Shore - 06 - Elanor (Featuring Sir James Galway).flac" WAVE
TRACK 06 AUDIO
TITLE "Elanor"
PERFORMER "Howard Shore"
INDEX 01 00:00:00
FILE "Howard Shore - 07 - Days Of The Ring (Featuring Annie Lennox).flac" WAVE
TRACK 07 AUDIO
TITLE "Days Of The Ring (Featuring 'Into The West')"
PERFORMER "Howard Shore"
INDEX 01 00:00:00
FILE "Howard Shore - 08 - Bilbo's Song.flac" WAVE
TRACK 08 AUDIO
TITLE "Bilbo's Song"
PERFORMER "Howard Shore"
INDEX 01 00:00:00
Total time - 03:49:39
Торрент (Score) Howard Shore - The Lord Of The Rings: The Complete Recordings [FLAC (image + .cue), lossless] Скачать в TAS-IX
Торрент: Зарегистрирован [ 2018-10-09 20:21 ] · 3E1041F1F0056F9B5F6A6A2D93290763D0E95C2C

Скачать .torrent

Скачать

48 KB

Статус: проверено
Скачан: 2 раз
Размер: 3.12 GB
 

Создавать темы 09-Окт-2018 20:21

[Профиль]  [ЛС] 
Показать сообщения:    
Ответить на тему

Текущее время: 19-Июл 11:41

Часовой пояс: UTC + 5



Вы не можете начинать темы
Вы не можете отвечать на сообщения
Вы не можете редактировать свои сообщения
Вы не можете удалять свои сообщения
Вы не можете голосовать в опросах
Вы не можете прикреплять файлы к сообщениям
Вы не можете скачивать файлы