Призраки дома на холме / The Haunting of Hill House (Майк Флэнеган / Mike Flanagan) [S01] [2018 г., драма, ужасы, WEBRip 1080p] скачать торрент в TAS-IX

Ответить на тему
Статистика раздачи
Размер:  28.77 GB   |    Зарегистрирован:  5 месяцев 28 дней   |    Скачан:  1 раз

Полного источника не было: 5 месяцев 24 дня

 
     
 
 
 

ZHU ®

Стаж: 8 лет 5 месяцев

Сообщений: 169

Симпатии: 60

Призраки дома на холме / The Haunting of Hill House
- -Год выпуска: 2018-Страна: США-Студия: Amblin Television, Paramount Television-Жанр: драма, ужасы-Продолжительность: ~00:55:00 серия-Перевод: Профессиональный многоголосый АРК-ТВ Studio & VSI International
Субтитры: русские (Forced), русские (Full), английские (Full), английские (Full SDH), арабские (Arabic), китайские (Chinese (Simplified)), китайские (Chinese (Traditional)), датские (Danish), нидерландские (Dutch), финские (Finnish), французские (French), немецкие (German), греческие (Greek), иврит (Hebrew), индонезийские (Indonesian), итальянские (Italian), японские (Japanese), корейские (Korean), норвежские (Norwegian), польские (Polish), португальские (Portuguese), португальские (Portuguese (Brazilian)),
румынские (Romanian), испанские (Spanish), испанские (Spanish), шведские (Swedish), тайские (Thai), турецкие (Turkish)-Режиссер: Майк Флэнеган / Mike Flanagan
В ролях: Михил Хаушман (Steven Crain), Карла Гуджино (Olivia Crain), Генри Томас (Young Hugh Crain), Элизабет Ризер (Shirley Crain), Оливер Джексон-Коэн (Luke Crain), Кейт Сигел (Theodora Crain), Виктория Педретти (Nell Crain), Лулу Уилсон (Young Shirley), МакКенна Грейс (Young Theo), Paxton Singleton (Young Steven), Julian Hilliard (Young Luke), Violet McGraw (Young Nell)-Описание:
История семьи, которая долгое время жила в доме, населённом призраками. Годы спустя трагедия заставляет их вернуться в тот дом и встретиться лицом к лицу со злом, обитающим в его стенах.
-Качество: WEBRip
Формат: MKV
Видео: AVC, 1920x960 (2.000), 6595 kbps, 23,976 fps, 0,149 bpp
Аудио #1: | Русский / AC3+ / 5.1 / 48 kHz / 640 kbps /
Аудио #2: | Английский / AC3+ / 48 kHz / 448 kbps /-

Список серий

01. Стивен увидел призрака / Steven Sees a Ghost
02. Открытая шкатулка / Open Casket
03. Прикосновение / Touch
04. Вещь близнецов / The Twin Thing
05. Девушка с изогнутой шеей / The Bent-Neck Lady
06. Два шторма / Two Storms
07. Прощальная речь / Eulogy
08. Знаки свидетелей / Witness Marks
09. Белая горячка / Screaming Meemies
10. Безмолвие / Silence Lay Steadily

MediaInfo

General
Unique ID                                : 17172454266371421666866655766442697435 (0xCEB4B5D1437F74EF3F1F47B67A462DB)
Complete name                            : The.Haunting.of.Hill.House.S01.1080p.WEBRip.Rus.Eng.EniaHD\The.Haunting.of.Hill.House.S01E01.Steven.Sees.a.Ghost.1080p.WEBRip.Rus.Eng.EniaHD.mkv
Format                                   : Matroska
Format version                           : Version 4 / Version 2
File size                                : 3.21 GiB
Duration                                 : 1 h 0 min
Overall bit rate                         : 7 638 kb/s
Movie name                               : Стивен увидел призрака
Encoded date                             : UTC 2018-10-14 08:41:31
Writing application                      : mkvmerge v26.0.0 ('In The Game') 32-bit
Writing library                          : libebml v1.3.6 + libmatroska v1.4.9
Cover                                    : Yes
Attachments                              : cover.jpg
Video
ID                                       : 1
Format                                   : AVC
Format/Info                              : Advanced Video Codec
Format profile                           : [email protected]
Format settings                          : CABAC / 4 Ref Frames
Format settings, CABAC                   : Yes
Format settings, RefFrames               : 4 frames
Codec ID                                 : V_MPEG4/ISO/AVC
Duration                                 : 59 min 39 s
Bit rate                                 : 6 595 kb/s
Width                                    : 1 920 pixels
Height                                   : 960 pixels
Display aspect ratio                     : 2.000
Frame rate mode                          : Constant
Frame rate                               : 23.976 (24000/1001) FPS
Color space                              : YUV
Chroma subsampling                       : 4:2:0
Bit depth                                : 8 bits
Scan type                                : Progressive
Bits/(Pixel*Frame)                       : 0.149
Stream size                              : 2.75 GiB (86%)
Title                                    : The Haunting of Hill House S01E01 Steven Sees a Ghost - Release by Zgurvas for EniaHD
Writing library                          : x264 core 157 r2932+2 (master: 303c484 / tmod: 1b88d0a) [X86_64]
Encoding settings                        : cabac=1 / ref=4 / deblock=1:-3:-3 / analyse=0x3:0x133 / me=umh / subme=11 / psy=1 / psy_rd=1.05:0.15 / mixed_ref=1 / me_range=48 / chroma_me=1 / trellis=2 / 8x8dct=1 / cqm=0 / deadzone=6,6 / fast_pskip=0 / chroma_qp_offset=-3 / threads=30 / lookahead_threads=7 / sliced_threads=0 / nr=0 / decimate=0 / interlaced=0 / bluray_compat=0 / constrained_intra=0 / bframes=10 / b_pyramid=2 / b_adapt=2 / b_bias=0 / direct=3 / weightb=1 / open_gop=0 / weightp=2 / keyint=250 / keyint_min=23 / scenecut=40 / intra_refresh=0 / rc=crf / mbtree=0 / crf=17.0 / qcomp=0.70 / qpmin=0 / qpmax=69 / qpstep=4 / ip_ratio=1.25 / pb_ratio=1.20 / aq=3:0.70
Language                                 : English
Default                                  : Yes
Forced                                   : No
Audio #1
ID                                       : 2
Format                                   : E-AC-3
Format/Info                              : Enhanced Audio Coding 3
Format settings, Endianness              : Big
Codec ID                                 : A_EAC3
Duration                                 : 1 h 0 min
Bit rate mode                            : Constant
Bit rate                                 : 640 kb/s
Channel(s)                               : 6 channels
Channel positions                        : Front: L C R, Side: L R, LFE
Sampling rate                            : 48.0 kHz
Frame rate                               : 187.500 FPS (256 SPF)
Compression mode                         : Lossy
Stream size                              : 275 MiB (8%)
Title                                    : E-AC3 5.1 @ 640 kbps - MVO, АРК-ТВ Studio + VSI International
Language                                 : Russian
Service kind                             : Complete Main
Default                                  : Yes
Forced                                   : No
Audio #2
ID                                       : 3
Format                                   : E-AC-3
Format/Info                              : Enhanced Audio Coding 3
Format profile                           : E-AC-3+Atmos / E-AC-3
Format settings, Endianness              : Big
Codec ID                                 : A_EAC3
Duration                                 : 59 min 39 s
Bit rate mode                            : Constant
Bit rate                                 : 448 kb/s
Channel(s)                               : 15 objects / 6 channels
Channel positions                        : 15 objects / Front: L C R, Side: L R, LFE
Sampling rate                            : 48.0 kHz
Frame rate                               : 187.500 FPS (256 SPF)
Compression mode                         : Lossy
Stream size                              : 191 MiB (6%)
Title                                    : E-AC3 + Atmos 5.1 @ 448 kbps - Original
Language                                 : English
Service kind                             : Complete Main
Default                                  : No
Forced                                   : No
Text #1
ID                                       : 4
Format                                   : UTF-8
Codec ID                                 : S_TEXT/UTF8
Codec ID/Info                            : UTF-8 Plain Text
Duration                                 : 59 min 17 s
Bit rate                                 : 2 b/s
Count of elements                        : 30
Stream size                              : 1.07 KiB (0%)
Title                                    : Forced
Language                                 : Russian
Default                                  : Yes
Forced                                   : Yes
Text #2
ID                                       : 5
Format                                   : UTF-8
Codec ID                                 : S_TEXT/UTF8
Codec ID/Info                            : UTF-8 Plain Text
Duration                                 : 58 min 14 s
Bit rate                                 : 81 b/s
Count of elements                        : 793
Stream size                              : 34.6 KiB (0%)
Title                                    : Full
Language                                 : Russian
Default                                  : No
Forced                                   : No
Text #3
ID                                       : 6
Format                                   : UTF-8
Codec ID                                 : S_TEXT/UTF8
Codec ID/Info                            : UTF-8 Plain Text
Duration                                 : 58 min 7 s
Bit rate                                 : 51 b/s
Count of elements                        : 779
Stream size                              : 22.0 KiB (0%)
Title                                    : Full
Language                                 : English
Default                                  : No
Forced                                   : No
Text #4
ID                                       : 7
Format                                   : UTF-8
Codec ID                                 : S_TEXT/UTF8
Codec ID/Info                            : UTF-8 Plain Text
Duration                                 : 58 min 2 s
Bit rate                                 : 56 b/s
Count of elements                        : 802
Stream size                              : 24.2 KiB (0%)
Title                                    : Full SDH
Language                                 : English
Default                                  : No
Forced                                   : No
Text #5
ID                                       : 8
Format                                   : UTF-8
Codec ID                                 : S_TEXT/UTF8
Codec ID/Info                            : UTF-8 Plain Text
Duration                                 : 58 min 20 s
Bit rate                                 : 86 b/s
Count of elements                        : 826
Stream size                              : 37.1 KiB (0%)
Title                                    : Arabic
Language                                 : Arabic
Default                                  : No
Forced                                   : No
Text #6
ID                                       : 9
Format                                   : UTF-8
Codec ID                                 : S_TEXT/UTF8
Codec ID/Info                            : UTF-8 Plain Text
Duration                                 : 59 min 17 s
Bit rate                                 : 43 b/s
Count of elements                        : 813
Stream size                              : 18.7 KiB (0%)
Title                                    : Chinese (Simplified)
Language                                 : Chinese
Default                                  : No
Forced                                   : No
Text #7
ID                                       : 10
Format                                   : UTF-8
Codec ID                                 : S_TEXT/UTF8
Codec ID/Info                            : UTF-8 Plain Text
Duration                                 : 58 min 20 s
Bit rate                                 : 52 b/s
Count of elements                        : 824
Stream size                              : 22.2 KiB (0%)
Title                                    : Chinese (Traditional)
Language                                 : Chinese
Default                                  : No
Forced                                   : No
Text #8
ID                                       : 11
Format                                   : UTF-8
Codec ID                                 : S_TEXT/UTF8
Codec ID/Info                            : UTF-8 Plain Text
Duration                                 : 58 min 20 s
Bit rate                                 : 45 b/s
Count of elements                        : 798
Stream size                              : 19.4 KiB (0%)
Title                                    : Danish
Language                                 : Danish
Default                                  : No
Forced                                   : No
Text #9
ID                                       : 12
Format                                   : UTF-8
Codec ID                                 : S_TEXT/UTF8
Codec ID/Info                            : UTF-8 Plain Text
Duration                                 : 59 min 17 s
Bit rate                                 : 45 b/s
Count of elements                        : 593
Stream size                              : 19.8 KiB (0%)
Title                                    : Dutch
Language                                 : Dutch
Default                                  : No
Forced                                   : No
Text #10
ID                                       : 13
Format                                   : UTF-8
Codec ID                                 : S_TEXT/UTF8
Codec ID/Info                            : UTF-8 Plain Text
Duration                                 : 59 min 17 s
Bit rate                                 : 45 b/s
Count of elements                        : 682
Stream size                              : 19.9 KiB (0%)
Title                                    : Finnish
Language                                 : Finnish
Default                                  : No
Forced                                   : No
Text #11
ID                                       : 14
Format                                   : UTF-8
Codec ID                                 : S_TEXT/UTF8
Codec ID/Info                            : UTF-8 Plain Text
Duration                                 : 58 min 19 s
Bit rate                                 : 46 b/s
Count of elements                        : 753
Stream size                              : 20.1 KiB (0%)
Title                                    : French
Language                                 : French
Default                                  : No
Forced                                   : No
Text #12
ID                                       : 15
Format                                   : UTF-8
Codec ID                                 : S_TEXT/UTF8
Codec ID/Info                            : UTF-8 Plain Text
Duration                                 : 58 min 20 s
Bit rate                                 : 47 b/s
Count of elements                        : 821
Stream size                              : 20.5 KiB (0%)
Title                                    : German
Language                                 : German
Default                                  : No
Forced                                   : No
Text #13
ID                                       : 16
Format                                   : UTF-8
Codec ID                                 : S_TEXT/UTF8
Codec ID/Info                            : UTF-8 Plain Text
Duration                                 : 58 min 20 s
Bit rate                                 : 82 b/s
Count of elements                        : 801
Stream size                              : 35.1 KiB (0%)
Title                                    : Greek
Language                                 : Greek
Default                                  : No
Forced                                   : No
Text #14
ID                                       : 17
Format                                   : UTF-8
Codec ID                                 : S_TEXT/UTF8
Codec ID/Info                            : UTF-8 Plain Text
Duration                                 : 59 min 17 s
Bit rate                                 : 85 b/s
Count of elements                        : 816
Stream size                              : 37.3 KiB (0%)
Title                                    : Hebrew
Language                                 : Hebrew
Default                                  : No
Forced                                   : No
Text #15
ID                                       : 18
Format                                   : UTF-8
Codec ID                                 : S_TEXT/UTF8
Codec ID/Info                            : UTF-8 Plain Text
Duration                                 : 58 min 20 s
Bit rate                                 : 46 b/s
Count of elements                        : 778
Stream size                              : 19.7 KiB (0%)
Title                                    : Indonesian
Language                                 : Indonesian
Default                                  : No
Forced                                   : No
Text #16
ID                                       : 19
Format                                   : UTF-8
Codec ID                                 : S_TEXT/UTF8
Codec ID/Info                            : UTF-8 Plain Text
Duration                                 : 58 min 19 s
Bit rate                                 : 52 b/s
Count of elements                        : 749
Stream size                              : 22.5 KiB (0%)
Title                                    : Italian
Language                                 : Italian
Default                                  : No
Forced                                   : No
Text #17
ID                                       : 20
Format                                   : UTF-8
Codec ID                                 : S_TEXT/UTF8
Codec ID/Info                            : UTF-8 Plain Text
Duration                                 : 59 min 17 s
Bit rate                                 : 45 b/s
Count of elements                        : 747
Stream size                              : 19.8 KiB (0%)
Title                                    : Japanese
Language                                 : Japanese
Default                                  : No
Forced                                   : No
Text #18
ID                                       : 21
Format                                   : UTF-8
Codec ID                                 : S_TEXT/UTF8
Codec ID/Info                            : UTF-8 Plain Text
Duration                                 : 59 min 17 s
Bit rate                                 : 59 b/s
Count of elements                        : 825
Stream size                              : 25.7 KiB (0%)
Title                                    : Korean
Language                                 : Korean
Default                                  : No
Forced                                   : No
Text #19
ID                                       : 22
Format                                   : UTF-8
Codec ID                                 : S_TEXT/UTF8
Codec ID/Info                            : UTF-8 Plain Text
Duration                                 : 58 min 53 s
Bit rate                                 : 43 b/s
Count of elements                        : 787
Stream size                              : 18.6 KiB (0%)
Title                                    : Norwegian
Language                                 : Norwegian
Default                                  : No
Forced                                   : No
Text #20
ID                                       : 23
Format                                   : UTF-8
Codec ID                                 : S_TEXT/UTF8
Codec ID/Info                            : UTF-8 Plain Text
Duration                                 : 59 min 17 s
Bit rate                                 : 43 b/s
Count of elements                        : 772
Stream size                              : 18.8 KiB (0%)
Title                                    : Polish
Language                                 : Polish
Default                                  : No
Forced                                   : No
Text #21
ID                                       : 24
Format                                   : UTF-8
Codec ID                                 : S_TEXT/UTF8
Codec ID/Info                            : UTF-8 Plain Text
Duration                                 : 58 min 20 s
Bit rate                                 : 50 b/s
Count of elements                        : 786
Stream size                              : 21.4 KiB (0%)
Title                                    : Portuguese
Language                                 : Portuguese
Default                                  : No
Forced                                   : No
Text #22
ID                                       : 25
Format                                   : UTF-8
Codec ID                                 : S_TEXT/UTF8
Codec ID/Info                            : UTF-8 Plain Text
Duration                                 : 58 min 19 s
Bit rate                                 : 50 b/s
Count of elements                        : 764
Stream size                              : 21.7 KiB (0%)
Title                                    : Portuguese (Brazilian)
Language                                 : Portuguese
Default                                  : No
Forced                                   : No
Text #23
ID                                       : 26
Format                                   : UTF-8
Codec ID                                 : S_TEXT/UTF8
Codec ID/Info                            : UTF-8 Plain Text
Duration                                 : 58 min 20 s
Bit rate                                 : 52 b/s
Count of elements                        : 796
Stream size                              : 22.2 KiB (0%)
Title                                    : Romanian
Language                                 : Romanian
Default                                  : No
Forced                                   : No
Text #24
ID                                       : 27
Format                                   : UTF-8
Codec ID                                 : S_TEXT/UTF8
Codec ID/Info                            : UTF-8 Plain Text
Duration                                 : 58 min 19 s
Bit rate                                 : 48 b/s
Count of elements                        : 739
Stream size                              : 20.9 KiB (0%)
Title                                    : Spanish
Language                                 : Spanish
Default                                  : No
Forced                                   : No
Text #25
ID                                       : 28
Format                                   : UTF-8
Codec ID                                 : S_TEXT/UTF8
Codec ID/Info                            : UTF-8 Plain Text
Duration                                 : 58 min 18 s
Bit rate                                 : 49 b/s
Count of elements                        : 749
Stream size                              : 21.2 KiB (0%)
Title                                    : Spanish
Language                                 : Spanish
Default                                  : No
Forced                                   : No
Text #26
ID                                       : 29
Format                                   : UTF-8
Codec ID                                 : S_TEXT/UTF8
Codec ID/Info                            : UTF-8 Plain Text
Duration                                 : 58 min 20 s
Bit rate                                 : 50 b/s
Count of elements                        : 815
Stream size                              : 21.6 KiB (0%)
Title                                    : Swedish
Language                                 : Swedish
Default                                  : No
Forced                                   : No
Text #27
ID                                       : 30
Format                                   : UTF-8
Codec ID                                 : S_TEXT/UTF8
Codec ID/Info                            : UTF-8 Plain Text
Duration                                 : 58 min 20 s
Bit rate                                 : 125 b/s
Count of elements                        : 821
Stream size                              : 53.7 KiB (0%)
Title                                    : Thai
Language                                 : Thai
Default                                  : No
Forced                                   : No
Text #28
ID                                       : 31
Format                                   : UTF-8
Codec ID                                 : S_TEXT/UTF8
Codec ID/Info                            : UTF-8 Plain Text
Duration                                 : 59 min 17 s
Bit rate                                 : 50 b/s
Count of elements                        : 768
Stream size                              : 22.1 KiB (0%)
Title                                    : Turkish
Language                                 : Turkish
Default                                  : No
Forced                                   : No
Торрент Призраки дома на холме / The Haunting of Hill House (Майк Флэнеган / Mike Flanagan) [S01] [2018 г., драма, ужасы, WEBRip 1080p] Скачать в TAS-IX
 ЗОЛОТАЯ РАЗДАЧА! СКАЧАННОЕ НЕ ЗАСЧИТЫВАЕТСЯ! 
Торрент: Зарегистрирован [ 2018-11-27 17:43 ] · 9E5F45D8E6CF009C314EF1F6C6B94BCA53E2AF7C

Скачать .torrent

Скачать

74 KB

Статус: проверено
Скачан: 1 раз
Размер: 28.77 GB
 



Последний раз редактировалось: ZHU (2018-11-27 20:11), всего редактировалось 2 раз(а)

Создавать темы 27-Ноя-2018 17:43

[Профиль]  [ЛС] 

ZHU ®

Стаж: 8 лет 5 месяцев

Сообщений: 169

Симпатии: 60

Не обращайте внимания что нет раздачи, и на "полного источника не было : ".....". Просто качайте.


Последний раз редактировалось: ZHU (2019-01-06 12:50), всего редактировалось 1 раз

Создавать темы 27-Ноя-2018 19:44

[Профиль]  [ЛС] 

Топик был перенесен из форума Сезон 2017-2018 в форум HD
ruhal

Создавать темы 27-Ноя-2018 21:51

 
Показать сообщения:    
Ответить на тему

Текущее время: 26-Май 15:56

Часовой пояс: UTC + 5



Вы не можете начинать темы
Вы не можете отвечать на сообщения
Вы не можете редактировать свои сообщения
Вы не можете удалять свои сообщения
Вы не можете голосовать в опросах
Вы не можете прикреплять файлы к сообщениям
Вы не можете скачивать файлы