Босс-молокосос: Снова в деле / The Boss Baby: Back in Business / Сезон 1,2 / Серии 1-23 из 26 (Аллан Якобсен) [2018, мультфильм, фэнтези, комедия, семейный, WEB-DL 1080p] [AlexFilm] + Eng скачать торрент в TAS-IX

Ответить на тему
Статистика раздачи
Размер:  15.17 GB   |    Зарегистрирован:  5 месяцев 6 дней   |    Скачан:  1 раз

Полного источника не было: 4 месяца 20 дней

 
     
 
 
 

xasan777 ®

Стаж: 6 лет 2 месяца

Сообщений: 39

Симпатии: 10

Босс-молокосос: Снова в деле / The Boss Baby: Back in Business-Сезон 1 / Серии: 1-13 из 13
Сезон 2 / Серии: 1-10 из 13
Раздача ведется путем добавления новых серий- Год выпуска: 2018
Страна: США
Жанр: мультфильм, фэнтези, комедия, семейный-Продолжительность: 00:24:00 серия
Перевод: Профессиональный (многоголосый, закадровый)AlexFilm
Режиссер: Аллан Якобсен-В ролях: Джон Пол Карлиак (Boss Baby), Пирс Гэнон (Tim), Кевин Майкл Ричардсон (Jimbo), Alex Cazares (Staci), Дэвид В. Коллинз (Dad), Хоуп Леви (Mom), Эрик Белл мл. (Triplets), Флула Борг (Mega Fat CEO Baby), Джэйк Грин (Bootsy Calico), Кари Уолгрен (Marsha Krinkle, Baby Simmons, Mrs. Buskie), Брэндон Скотт (Hendershot)-Описание: При помощи своего брата и сообщника, Тима, Босс-Молокосос пытается совместить семейную жизнь с работой в штаб-квартире "Корпорации Младенцев".- -Качество: WEB-DL 1080p
Формат: Matroska
Видео: 1920x1080 at 23.976 fps, MPEG-4 AVC
Аудио: Аудио#1: Russian: 48 kHz, AC3, 3/2 (L,C,R,l,r) + LFE ch, ~384 kbps avg |Многоголосый закадровый, AlexFilm|
АудиоАудио#2: English: 48 kHz, AC3, 3/2 (L,C,R,l,r) + LFE ch, ~384 kbps avg

список серий

1-й сезон
01. Непоседа Баски / Scooter Buskie
02. Кошка в колыбели / Cat's in the Cradle
03. Семейная вечеринка / Family Fun Night
04. Формула угрозы: загадки Лунного сапожника / Formula for Menace: A Dekker Moonboots Mystery
05. Машина-монстр / Monster Machine
06. Ситуация запора / The Constipation Situation
07. Босс - нянька / The Boss Babysitter
08. Ужасный дом с кучей кошек / Into the Belly of the Den of the House of the Nest of Cats
09. День духов / Spirit Day
10. Опасный авиарейс / Par Avion
11. Котокоп! / Cat Cop!
12. Держись, детка / Hang in There, Baby
13. Шесть хорошо пристроенных котят / Six Well-Placed Kittens
2-й сезон
01. Как освежить подгузник / As the Diaper Changes
02. Корпорация Супер крутых больших детей / Super Cool Big Kids, Inc.
03. Сделка / P.U.
04. Тише, малыш / Hush, Little Baby
05. Жуткий Фродарг / Night of the Frodarg
06. День беглеца / Fugitive's Day Out
07. Страстный бизнес няньки / El Apasionado Negocio de la Ninera
08. Пушистик / Plushythingy
09. Проблема номер один / Number One Problem
10. Идеальное место / Picture Perfect

M.I.

Тип потока: Видео
Длительность: 00:23:16
Кодек: AVC
Кодек/описание: Advanced Video Codec
Кодек/профиль: [email protected]
Кодек/ID: V_MPEG4/ISO/AVC
Кодек/CABAC: Yes
Кодек/ReFrames: 3 frames
Размеры изображения: 1920 x 1080 (16:9)
Частота кадров: 23.976 fps
Частота кадров/тип: Constant
Размер потока: 512 MiB (78%)
Битрейт: 3 160 Kbps
Битрейт/макс: 4 740 Kbps
Битрейт/тип: VBR
Библиотека кодирования: x264 core 148 r2715 7e75228
Цветовое пространство: YUV
Тип развёртки: Progressive
Колориметрия: 4:2:0
Глубина: 8 bits
Настройки кодирования: cabac=1 / ref=3 / deblock=1:0:0 / analyse=0x1:0x111 / me=umh / subme=10 / psy=1 / psy_rd=1.00:0.00 / mixed_ref=1 / me_range=24 / chroma_me=1 / trellis=2 / 8x8dct=0 / cqm=0 / deadzone=21,11 / fast_pskip=1 / chroma_qp_offset=-2 / threads=8 / lookahead_threads=1 / sliced_threads=0 / nr=0 / decimate=1 / interlaced=0 / bluray_compat=0 / stitchable=1 / constrained_intra=0 / bframes=2 / b_pyramid=0 / b_adapt=2 / b_bias=0 / direct=3 / weightb=1 / open_gop=0 / weightp=2 / keyint=48 / keyint_min=25 / scenecut=0 / intra_refresh=0 / rc_lookahead=48 / rc=2pass / mbtree=1 / bitrate=3160 / ratetol=1.0 / qcomp=0.50 / qpmin=6 / qpmax=51 / qpstep=4 / cplxblur=20.0 / qblur=0.5 / vbv_maxrate=4740 / vbv_bufsize=6320 / nal_hrd=vbr / filler=0 / ip_ratio=1.40 / aq=1:1.00
Тип потока: Звук #1
Язык: Russian
Длительность: 00:23:16.032
Кодек: AC-3
Кодек/описание: Audio Coding 3
Кодек/ID: A_AC3
Частота дискретизации: 48.0 KHz
Каналов: 6 channels
Битрейт: 384 Kbps
Битрейт/тип: Constant
Размер потока: 63.9 MiB (10%)
Глубина: 16 bits
Метод сжатия: Lossy
Тип потока: Звук #2
Язык: English
Длительность: 00:23:16.032
Кодек: AC-3
Кодек/описание: Audio Coding 3
-
Торрент Босс-молокосос: Снова в деле / The Boss Baby: Back in Business / Сезон 1,2 / Серии 1-23 из 26 (Аллан Якобсен) [2018, мультфильм, фэнтези, комедия, семейный, WEB-DL 1080p] [AlexFilm] + Eng Скачать в TAS-IX
 ЗОЛОТАЯ РАЗДАЧА! СКАЧАННОЕ НЕ ЗАСЧИТЫВАЕТСЯ! 
Торрент: Зарегистрирован [ 2018-12-16 00:27 ] · 1BA0402A2D425A729424EAD1D9DD5EFE453F4668

Скачать .torrent

Скачать

78 KB

Статус: T временная
Скачан: 1 раз
Размер: 15.17 GB
 

Создавать темы 16-Дек-2018 00:27

[Профиль]  [ЛС] 
Показать сообщения:    
Ответить на тему

Текущее время: 22-Май 16:52

Часовой пояс: UTC + 5



Вы не можете начинать темы
Вы не можете отвечать на сообщения
Вы не можете редактировать свои сообщения
Вы не можете удалять свои сообщения
Вы не можете голосовать в опросах
Вы не можете прикреплять файлы к сообщениям
Вы не можете скачивать файлы