Картина красоты / Picture of Beauty (Максим Форд / Maxim Ford) [2017, Великобритания, Польша, драма, мелодрама, BDRip 72Op] VO скачать торрент в TAS-IX

Ответить на тему
Статистика раздачи
Размер:  2.97 GB   |    Зарегистрирован:  6 месяцев 20 дней   |    Скачан:  71 раз
Сидов:  4  [  0 KB/s  ]   Подробная статистика пиров
 
     
 
 

kat222000 ®

Стаж: 8 лет 5 месяцев

Сообщений: 629

Симпатии: 1088

Картина красоты / Picture of Beauty«The water's warm and wet, come on in» -Страна: Великобритания, Польша
Жанр: драма, мелодрама
Год выпуска: 2017
Продолжительность: 01:12:28
Перевод: Любительский одноголосый (datynet)
Субтитры: нет-Режиссер: Максим Форд / Maxim Ford-В ролях: Чедвик Боузман, Майкл Б. Джордан, Лупита Нионго, Данай Джекесай Гурира, Мартин Фриман, Дэниэл Калуя, Летишиа Райт, Уинстон Дьюк, Стерлинг К. Браун, Анджела Бассетт-Описание: Экранизация мемуаров «морского котика» из Техаса Криса Кайла, который служил снайпером в Ираке и стал рекордсменом по числу убитых солдат противника, за что иракцы прозвали его дьяволом. Кроме самой войны, фильм рассказывает о воспоминаниях жены Криса, которая была свидетелем растущей привязанности мужа к его сослуживцам.- -Возраст: зрителям, достигшим 18 лет-Рейтинг MPAA: лицам до 17 лет обязательно присутствие взрослого-Качество видео: BDRip 72Op
Формат видео: MKV
Видео кодек: AVC
Аудио кодек: AC3
Видео: 1 280x720 (2.40:1), 60,000 fps, AVC ~5 300 kbps avg, 0.240 bit/pixel
Аудио: 48 kHz, AC3 2/0 (L,R) ch, ~448.00 kbps avg (Русский | VO)
Навигация по главам: нет-

〤 ОтчетМедиаИнфо 〤

General
Unique ID : 205785144634909026779800969455211456837 (0x9AD0C6F7A4C97205824CD41A045D2945)
Complete name : E:\Фильмы\HD\Picture.of.Beauty.2017.P.BDRip.72Op.mkv
Format : Matroska
Format version : Version 2
File size : 2.97 GiB
Duration : 1h 12mn
Overall bit rate mode : Variable
Overall bit rate : 5 865 Kbps
Encoded date : UTC 2017-09-12 14:55:08
Writing application : mkvmerge v8.3.0 ('Over the Horizon') 64bit
Writing library : libebml v1.3.1 + libmatroska v1.4.2
DURATION : 01:12:28.480000000
NUMBER_OF_FRAMES : 135890
NUMBER_OF_BYTES : 243514880
_STATISTICS_WRITING_APP : mkvmerge v8.3.0 ('Over the Horizon') 64bit
_STATISTICS_WRITING_DATE_UTC : 2017-09-12 14:55:08
_STATISTICS_TAGS : BPS DURATION NUMBER_OF_FRAMES NUMBER_OF_BYTES
Video
ID : 1
Format : AVC
Format/Info : Advanced Video Codec
Format profile : [email protected]
Format settings, CABAC : Yes
Format settings, ReFrames : 9 frames
Codec ID : V_MPEG4/ISO/AVC
Duration : 1h 12mn
Bit rate mode : Variable
Bit rate : 5 300 Kbps
Maximum bit rate : 6 000 Kbps
Width : 1 280 pixels
Height : 720 pixels
Display aspect ratio : 16:9
Frame rate mode : Constant
Frame rate : 23.976 fps
Standard : Component
Color space : YUV
Chroma subsampling : 4:2:0
Bit depth : 8 bits
Scan type : Progressive
Bits/(Pixel*Frame) : 0.240
Stream size : 2.68 GiB (90%)
Default : Yes
Forced : No
Color primaries : BT.709
Transfer characteristics : BT.709
Matrix coefficients : BT.709
Audio
ID : 2
Format : AC-3
Format/Info : Audio Coding 3
Mode extension : CM (complete main)
Format settings, Endianness : Big
Codec ID : A_AC3
Duration : 1h 12mn
Bit rate mode : Constant
Bit rate : 448 Kbps
Channel(s) : 2 channels
Channel positions : Front: L R
Sampling rate : 48.0 KHz
Bit depth : 16 bits
Compression mode : Lossy
Stream size : 232 MiB (8%)
Default : Yes
Forced : No
© Оформление by kat222000
Торрент Картина красоты / Picture of Beauty (Максим Форд / Maxim Ford) [2017, Великобритания, Польша, драма, мелодрама, BDRip 72Op] VO Скачать в TAS-IX
Торрент: Зарегистрирован [ 2019-02-24 23:32 ] · 9CF471AD43D24F08553FCFDB36C5FF57FE8783E5

Скачать .torrent

Скачать

15 KB

Статус: проверено
Скачан: 71 раз
Размер: 2.97 GB
 

Создавать темы 24-Фев-2019 23:32

[Профиль]  [ЛС] 

totsamiy

Стаж: 7 лет 3 месяца

Сообщений: 149

Симпатии: 22

kat222000, с возвращением

Создавать темы 27-Фев-2019 01:09

[Профиль]  [ЛС] 

beke

Стаж: 2 года 10 месяцев

Сообщений: 5

kat222000, с возвращением

Создавать темы 28-Фев-2019 20:34

[Профиль]  [ЛС] 
Показать сообщения:    
Ответить на тему

Текущее время: 17-Сен 15:36

Часовой пояс: UTC + 5



Вы не можете начинать темы
Вы не можете отвечать на сообщения
Вы не можете редактировать свои сообщения
Вы не можете удалять свои сообщения
Вы не можете голосовать в опросах
Вы не можете прикреплять файлы к сообщениям
Вы не можете скачивать файлы