Смеяться разрешается (Эфир 17.03.2019) [2019 г., Юмор, SATRip] скачать торрент в TAS-IX

Ответить на тему
Статистика раздачи
Размер:  1.53 GB   |    Зарегистрирован:  2 месяца 18 дней   |    Скачан:  3 раза

Полного источника не было: 2 месяца 7 дней

 
     
 
 
 

фазилов ®

Стаж: 5 лет 5 месяцев

Сообщений: 365

Симпатии: 358

(Эфир 24.03.2019) Год выпуска: 2019
Страна: Россия
Жанр: Юмор
Продолжительность: 01:49:41
Описание: Многообразие жанров – визитная карточка этого шоу: монологи, юморески, оригинальные номера, музыкальные пародии, а также популярные песни - вот лишь незначительный перечень этого юмористического капустника!
Это настоящий праздник смеха, юмора, музыки и пародии. За хорошее настроение отвечают ведущие Николай Бандурин и Михаил Вашуков.
Приготовьтесь смеяться и удивляться!
В этом выпуске:
1.К.Аванесян – Мудрые мысли
2.И.Маменко и Г.Ветров – Поэт на радио
3.А.Джанабаева – Самба белого мотылька
4.А.Щеглов – Женская и мужская логика
5.В.Данилец и В.Моисеенко – Деньги
6.С.Ещенко – Дама с собачкой
7.Н.Коростелёва – Верка и компьютер
8.Ю.Аскаров – Мужчины пристают
9.С.Рожкова и Ю.Евдокунин – Эротическая сцена
10.Г.Матвейчук – Выйду на улицу
11.А.Цапик – Кто там?
12.И.Борисова и А.Егоров – Подарочек
13.Н.Лукинский - Фура
14.А.Стоцкая - Влюбиться
15.В.Коркина и В.Остроухов – 340 дур
16.Л.Измайлов - Автобиография
17.Grand Melody Orchestra - Калинка
Видео кодек: XviD
Аудио кодек: AC3

Видео: 720x400 (1.80:1), 25 fps, XviD build 50 ~1799 kbps avg, 0.25 bit/pixel
Аудио: 48 kHz, AC3 Dolby Digital, 2/0 (L,R) ch, ~192 kbps

Mediainfo

Общее
Полное имя : E:\Мои релизы-2\Смеяться разрешается_2019\05. Смеяться разрешается (Эфир 24.03.2019).avi
Формат : AVI
Формат/Информация : Audio Video Interleave
Размер файла : 1,53 Гбайт
Продолжительность : 1 ч. 49 м.
Общий поток : 2001 Кбит/сек
Программа кодирования : VirtualDubMod 1.5.10.3 | www.virtualdub-fr.org || (build 2550/release)
Библиотека кодирования : VirtualDubMod build 2550/release
Видео
Идентификатор : 0
Формат : MPEG-4 Visual
Профиль формата : Advanced [email protected]
Параметр BVOP формата : 2
Параметр QPel формата : Нет
Параметр GMC формата : Без точки перехода
Параметр матрицы формата : Default (H.263)
Идентификатор кодека : XVID
Идентификатор кодека/Подсказка : XviD
Продолжительность : 1 ч. 49 м.
Битрейт : 1800 Кбит/сек
Ширина : 720 пикселей
Высота : 400 пикселей
Соотношение сторон : 16:9
Частота кадров : 25,000 кадров/сек
Цветовое пространство : YUV
Субдискретизация насыщенности : 4:2:0
Битовая глубина : 8 бит
Тип развёртки : Прогрессивная
Метод сжатия : С потерями
Бит/(Пиксели*Кадры) : 0.250
Размер потока : 1,38 Гбайт (90%)
Библиотека кодирования : XviD 1.2.1 (UTC 2008-12-04)
Аудио
Идентификатор : 1
Формат : AC-3
Формат/Информация : Audio Coding 3
Расширение режима : CM (complete main)
Параметр Endianness формата : Big
Идентификатор кодека : 2000
Продолжительность : 1 ч. 49 м.
Вид битрейта : Постоянный
Битрейт : 192 Кбит/сек
Каналы : 2 канала
Расположение каналов : Front: L R
Частота : 48,0 КГц
Частота кадров : 31,250 кадров/сек (1536 spf)
Битовая глубина : 16 бит
Метод сжатия : С потерями
Размер потока : 151 Мбайт (10%)
Выравнивание : Разделение по промежуткам
Продолжительность промежутка : 40 мс. (1,00 видеокадр)
Время предзагрузки промежутка : 500 мс.
Торрент Смеяться разрешается (Эфир 17.03.2019) [2019 г., Юмор, SATRip] Скачать в TAS-IX
Торрент: Зарегистрирован [ 2019-04-29 12:28 ] · F365C32D6DA7F26C0710EB94CDDB4A262F10066C

Скачать .torrent

Скачать

16 KB

Статус: проверено
Скачан: 3 раз
Размер: 1.53 GB
 

Создавать темы 29-Апр-2019 12:28

[Профиль]  [ЛС] 
Показать сообщения:    
Ответить на тему

Текущее время: 17-Июл 21:24

Часовой пояс: UTC + 5



Вы не можете начинать темы
Вы не можете отвечать на сообщения
Вы не можете редактировать свои сообщения
Вы не можете удалять свои сообщения
Вы не можете голосовать в опросах
Вы не можете прикреплять файлы к сообщениям
Вы не можете скачивать файлы