Клаустрофобы / Escape Room (Адам Робител) [2019, ЮАР, США, триллер, BDRip] (Dub : [Лицензия Blu-ray EUR]) скачать торрент в TAS-IX

Ответить на тему
Статистика раздачи
Размер:  1.46 GB   |    Зарегистрирован:  14 дней   |    Скачан:  0 раз
Сидов:  1  [  696 KB/s  ]   Личеров:  10  [  788 KB/s  ]   Подробная статистика пиров
 
     
 
 
 

}{@ttabi4 ®

Стаж: 8 лет

Сообщений: 169

Симпатии: 39

-Клаустрофобы / Escape Room

«Игры кончились»- Страна: ЮАР, США
Жанр: триллер
Год выпуска: 2019
Продолжительность: 01:39:37-Перевод: Профессиональный (полное дублирование) [Лицензия Blu-ray EUR]
Cубтитры:Русские форсированные (стилизованные, на надписи и прочее) - вшитые
Режиссер: Адам Робител-В ролях: Тейлор Расселл, Логан Миллер, Джей Эллис, Тайлер Лабин, Дебора Энн Уолл, Ник Додани, Йорик ван Вагенинген, Корнелиус Джини мл., Рассел Кроус, Барт Фаш-Описание: Получив от таинственной организации приглашение сыграть в квест, победитель которого получит солидную сумму, шестеро незнакомых между собой людей решают попытать удачу. Но совсем скоро им становится понятно, что их выбрали для игры не случайно, задания не такие безобидные, и им грозит вполне реальная опасность, а ставка в игре - их собственные жизни.-Качество видео: BDRip| исх. Escape.Room.2019.BDREMUX.1080p.seleZen |
Формат видео: AVI-Видео: 720x304 (2.37:1), 23.976 fps, XviD build 73 ~1646 kbps avg, 0.31 bit/pixel
Аудио: 48 kHz, AC3 Dolby Digital, 3/2 (L,C,R,l,r) + LFE ch, ~448 kbps-Kinopoisk
-

MediaInfo

General
Format : AVI
Format/Info : Audio Video Interleave
File size : 1.46 GiB
Duration : 1h 39mn
Overall bit rate : 2 103 Kbps
Movie name : Klaustrofobu.2019.D.BDRip.1.46Gb_ExKinoRay_by_Twi7ter / Klaustrofobu.2019.D.BDRip.1400Mb_ExKinoRay_by_Twi7ter
Director : Twi7ter / Twi7ter
Genre : Thriller / Thriller
Original source form/Name : Movie / Movie
Video #0
ID : 0
Format : MPEG-4 Visual
Format profile : Advanced [email protected]
Format settings, BVOP : 2
Format settings, QPel : No
Format settings, GMC : No warppoints
Format settings, Matrix : Custom
Codec ID : XVID
Codec ID/Hint : XviD
Duration : 1h 39mn
Bit rate : 1 646 Kbps
Width : 720 pixels
Height : 304 pixels
Display aspect ratio : 2.35:1
Frame rate : 23.976 fps
Color space : YUV
Chroma subsampling : 4:2:0
Bit depth : 8 bits
Scan type : Progressive
Compression mode : Lossy
Bits/(Pixel*Frame) : 0.314
Stream size : 1.15 GiB (78%)
Writing library : XviD 73
Audio #1
ID : 1
Format : AC-3
Format/Info : Audio Coding 3
Mode extension : CM (complete main)
Format settings, Endianness : Big
Codec ID : 2000
Duration : 1h 39mn
Bit rate mode : Constant
Bit rate : 448 Kbps
Channel(s) : 6 channels
Channel positions : Front: L C R, Side: L R, LFE
Sampling rate : 48.0 KHz
Bit depth : 16 bits
Compression mode : Lossy
Stream size : 319 MiB (21%)
Alignment : Aligned on interleaves
Interleave, duration : 42 ms (1.00 video frame)
Interleave, preload duration : 512 ms

Скриншот c названием фильма

Скриншоты



Торрент Клаустрофобы / Escape Room (Адам Робител) [2019, ЮАР, США, триллер, BDRip] (Dub : [Лицензия Blu-ray EUR]) Скачать в TAS-IX
 ЗОЛОТАЯ РАЗДАЧА! СКАЧАННОЕ НЕ ЗАСЧИТЫВАЕТСЯ! 
Торрент: Зарегистрирован [ 2019-05-08 12:38 ] · 406192FFB75A9402996D8F3A6A7529593AA5E780

Скачать .torrent

Скачать

15 KB

Статус: проверено
Скачан: 0 раз
Размер: 1.46 GB
 

Создавать темы 08-Май-2019 12:38

[Профиль]  [ЛС] 

Romio

Стаж: 8 лет 8 месяцев

Сообщений: 70

Симпатии: 1

Фильм супер 10 из 10

Создавать темы 09-Май-2019 22:59

[Профиль]  [ЛС] 
Показать сообщения:    
Ответить на тему

Текущее время: 22-Май 16:40

Часовой пояс: UTC + 5



Вы не можете начинать темы
Вы не можете отвечать на сообщения
Вы не можете редактировать свои сообщения
Вы не можете удалять свои сообщения
Вы не можете голосовать в опросах
Вы не можете прикреплять файлы к сообщениям
Вы не можете скачивать файлы