Парад Победы, посвященный 74-ой годовщине Победы в ВОВ/канал Россия HD [2019 г., Документальный] скачать торрент в TAS-IX

Ответить на тему
Статистика раздачи
Размер:  4 GB   |    Зарегистрирован:  2 месяца 11 дней   |    Скачан:  1 раз
Сидов:  1  [  0 KB/s  ]   Подробная статистика пиров
 
     
 
 
 

sepultator ®

Стаж: 6 лет 6 месяцев

Сообщений: 22

Симпатии: 13

Парад Победы, посвященный 74-ой годовщине Победы в ВОВ/канал Россия HD [2019 г., Документальный]
Страна: Россия
Жанр: Документальный, парад
Год выпуска: 2019
Продолжительность: ~01:02:00
Перевод: Не требуется
Cубтитры: нет
Описание: 9 мая на Красной площади в Москве состоялся Парад Победы в Великой Отечественной войне, приуроченный к 74-летней годовщине со дня ее окончания. Праздничные торжества посетили многие лидеры различных стран мира, большинство из которых прибыли в российскую столицу накануне Дня Победы. Воздушную часть парада Победы в Москве отменили
Благодаря Великой Победе многонационального советского народа и Красной Армии мы сегодня живем! Наши сегодняшние проблемы не идут ни в какое сравнение с тем, что пережили наши отцы, матери, весь народ в годы войны. Никто не забыт! Ничто не забыто! С Великим Праздником друзья!
Качество видео: HDTVRip
Формат видео: BDAV-TS
Видео: 1920x1080 (16:9), 25 fps, AVC, ~8500 Kbps
Аудио: 48.0 kHz, AC-3, 2 ch, 224 kbps

MediaInfo

General
ID : 15 (0xF)
Complete name : D:\Москва Красная площадь Военный парад.ts
Format : MPEG-TS
File size : 4.00 GiB
Duration : 1 h 2 min
Overall bit rate mode : Variable
Overall bit rate : 9 148 kb/s
Video
ID : 1901 (0x76D)
Menu ID : 901 (0x385)
Format : AVC
Format/Info : Advanced Video Codec
Format profile : [email protected]
Format settings : CABAC / 3 Ref Frames
Format settings, CABAC : Yes
Format settings, ReFrames : 3 frames
Format settings, GOP : M=4, N=32
Codec ID : 27
Duration : 1 h 2 min
Bit rate : 8 470 kb/s
Width : 1 920 pixels
Height : 1 080 pixels
Display aspect ratio : 16:9
Frame rate : 25.000 FPS
Standard : Component
Color space : YUV
Chroma subsampling : 4:2:0
Bit depth : 8 bits
Scan type : Interlaced
Scan type, store method : Separated fields
Scan order : Top Field First
Bits/(Pixel*Frame) : 0.163
Stream size : 3.70 GiB (93%)
Color range : Limited
Color primaries : BT.709
Transfer characteristics : BT.709
Matrix coefficients : BT.709
Audio
ID : 2901 (0xB55)
Menu ID : 901 (0x385)
Format : MPEG Audio
Format version : Version 1
Format profile : Layer 2
Codec ID : 4
Duration : 1 h 2 min
Bit rate mode : Constant
Bit rate : 224 kb/s
Channel(s) : 2 channels
Sampling rate : 48.0 kHz
Frame rate : 41.667 FPS (1152 SPF)
Compression mode : Lossy
Delay relative to video : -856 ms
Stream size : 100 MiB (2%)
Language : Russian
Menu
ID : 901 (0x385)
Menu ID : 901 (0x385)
Duration : 1 h 2 min
List : 1901 (0x76D) (AVC) / 2901 (0xB55) (MPEG Audio, Russian)
Language : / Russian

Скриншоты

Торрент Парад Победы, посвященный 74-ой годовщине Победы в ВОВ/канал Россия HD [2019 г., Документальный] Скачать в TAS-IX
 ЗОЛОТАЯ РАЗДАЧА! СКАЧАННОЕ НЕ ЗАСЧИТЫВАЕТСЯ! 
Торрент: Зарегистрирован [ 2019-05-09 14:00 ] · EC5D94AAC137DEF463DCB5F3A798A769DBB3D01B

Скачать .torrent

Скачать

21 KB

Статус: проверено
Скачан: 1 раз
Размер: 4 GB
 

Создавать темы 09-Май-2019 14:00

[Профиль]  [ЛС] 
Показать сообщения:    
Ответить на тему

Текущее время: 20-Июл 16:23

Часовой пояс: UTC + 5



Вы не можете начинать темы
Вы не можете отвечать на сообщения
Вы не можете редактировать свои сообщения
Вы не можете удалять свои сообщения
Вы не можете голосовать в опросах
Вы не можете прикреплять файлы к сообщениям
Вы не можете скачивать файлы