Ходячие мертвецы / The Walking Dead / Сезон 3 / Серии: 1-16 (16) (Эрнест Р. Дикерсон) [2012 г., ужасы, WEB-DLRip, HDTVRip ] MVO [FOX] eng скачать торрент в TAS-IX

Страницы :  1, 2, 3 ... 36, 37, 38  След.

Ответить на тему
Статистика раздачи
Размер:  8.6 GB   |    Зарегистрирован:  6 лет 4 месяца   |    Скачан:  1163 раза

Полного источника не было: 4 месяца 26 дней

 
     
 
 
 

emilsky ®

Стаж: 9 лет 1 месяц

Сообщений: 2236

Симпатии: 616

- - Год выхода в эфир: 2012
Страна: США
Жанр: ужасы
Продолжительность: ~ 42 минуты
Перевод: Профессиональный (многоголосый, закадровый)-Режиссер: Эрнест Р. Дикерсон
В ролях: Джон Бернтал, Джеффри ДеМун, Лори Холден, Эндрю Линкольн, Адам Минарович, Чендлер Риггз, Майкл Рукер, Сара Уэйн Кэллис
-Описание:После страшной болезни, превратившей жителей Земли в зомби, небольшая группа пока еще живых людей изо дня в день борется за выживание в новом, враждебном мире. Под предводительством бывшего полицейского Рика они ищут безопасное для жизни место, но зомби — это не самое страшное, что их ждет, основная опасность — это жестокое внутреннее соперничество среди выживших..-Озвучено: FOX--Sample- -Качество: WEB-DLRip
Формат: AVI
Видео кодек: XviD
Аудио кодек: MP3
Видео: 720x400 (1.80:1), 23.976 fps, XviD build 64 ~1520 kbps avg, 0.22 bit/pixel
Аудио #1: 48 kHz, MPEG Layer 3, 2 ch, ~128 kbps avg |FOX|
Аудио #2: 48 kHz, MPEG Layer 3, 2 ch, ~128 kbps avg |Оригинал|- -Релиз:
Звук предоставил: baggio
Подготовка видео: koss
Работа со звуком: baggio-

График выхода новых серий

3x01 Семя / Seed
3x02 Больной / Sick
3x03 Пройдемся / Walk with Me
3x04 Убийца внутри / Killer Within
3x05 Только скажи / Say the Word
3x06 Затравленные / Hounded
3x07 Когда мертвые стучатся / When the Dead Come Knocking
3х08 Сделано страдать / Made to Suffer
3х09 Король суицида
3х10 Дом / Home
3х11 Я не Иуда / I Ain't a Judas

3х12 Лучше умереть / Good As Dead
3х13 Последствия / Aftermath
3х14 Это война / This Is War// Не увлекайся мной / Don't Turn On Me
3х15 Эта горестная жизнь / This Sorrowful Life
3х16 Месть / Revenge

MEDiA iNFO

General
Complete name                            : D:\Ходячие мертвецы (3 сезон) FOX\The.Walking.Dead.s03e01.WEBDLRip.NewStudio.TV.avi
Format                                   : AVI
Format/Info                              : Audio Video Interleave
File size                                : 550 MiB
Duration                                 : 43mn 5s
Overall bit rate mode                    : Variable
Overall bit rate                         : 1 785 Kbps
Writing application                      : VirtualDubMod 1.5.10.2 (build 2540/release)
Writing library                          : VirtualDubMod build 2540/release
Video
ID                                       : 0
Format                                   : MPEG-4 Visual
Format profile                           : Advanced [email protected]
Format settings, BVOP                    : 2
Format settings, QPel                    : No
Format settings, GMC                     : No warppoints
Format settings, Matrix                  : Default (MPEG)
Codec ID                                 : XVID
Codec ID/Hint                            : XviD
Duration                                 : 43mn 5s
Bit rate                                 : 1 522 Kbps
Width                                    : 720 pixels
Height                                   : 400 pixels
Display aspect ratio                     : 16:9
Frame rate                               : 23.976 fps
Color space                              : YUV
Chroma subsampling                       : 4:2:0
Bit depth                                : 8 bits
Scan type                                : Progressive
Compression mode                         : Lossy
Bits/(Pixel*Frame)                       : 0.220
Stream size                              : 469 MiB (85%)
Writing library                          : XviD 64
Audio #1
ID                                       : 1
Format                                   : MPEG Audio
Format version                           : Version 1
Format profile                           : Layer 3
Mode                                     : Joint stereo
Mode extension                           : MS Stereo
Codec ID                                 : 55
Codec ID/Hint                            : MP3
Duration                                 : 43mn 5s
Bit rate mode                            : Constant
Bit rate                                 : 128 Kbps
Channel(s)                               : 2 channels
Sampling rate                            : 48.0 KHz
Compression mode                         : Lossy
Stream size                              : 39.5 MiB (7%)
Alignment                                : Aligned on interleaves
Interleave, duration                     : 42 ms (1.00 video frame)
Interleave, preload duration             : 504 ms
Audio #2
ID                                       : 2
Format                                   : MPEG Audio
Format version                           : Version 1
Format profile                           : Layer 3
Mode                                     : Joint stereo
Codec ID                                 : 55
Codec ID/Hint                            : MP3
Duration                                 : 43mn 5s
Bit rate mode                            : Variable
Bit rate                                 : 117 Kbps
Minimum bit rate                         : 32.0 Kbps
Channel(s)                               : 2 channels
Sampling rate                            : 48.0 KHz
Compression mode                         : Lossy
Stream size                              : 36.1 MiB (7%)
Alignment                                : Aligned on interleaves
Interleave, duration                     : 24 ms (0.58 video frame)
Interleave, preload duration             : 635 ms
Writing library                          : LAME3.99r
Encoding settings                        : -m j -V 2 -q 0 -lowpass 18.5 --vbr-new -b 32
Торрент Ходячие мертвецы / The Walking Dead / Сезон 3 / Серии: 1-16 (16) (Эрнест Р. Дикерсон) [2012 г., ужасы, WEB-DLRip, HDTVRip ] MVO [FOX] eng Скачать в TAS-IX
 ЗОЛОТАЯ РАЗДАЧА! СКАЧАННОЕ НЕ ЗАСЧИТЫВАЕТСЯ! 
Торрент: Зарегистрирован [ 2013-04-04 23:37 ] · 456E9AB7D6F644F58139CAD7F650DAF3A114EC6D

Скачать .torrent

Скачать

44 KB

Статус: проверено
Скачан: 1163 раз
Размер: 8.6 GB
 



Последний раз редактировалось: emilsky (2013-04-05 00:33), всего редактировалось 41 раз(а)

Создавать темы 16-Окт-2012 01:35

[Профиль]  [ЛС] 

PupuseG

Стаж: 6 лет 10 месяцев

Сообщений: 514

Симпатии: 64

emilsky, можно семпл на дир уз?

Создавать темы 16-Окт-2012 01:41

[Профиль]  [ЛС] 

mambet

Стаж: 6 лет 11 месяцев

Сообщений: 20

афтору респект ждем следушие серий и конечно же раздачу)))

Создавать темы 16-Окт-2012 01:42

[Профиль]  [ЛС] 

emilsky ®

Стаж: 9 лет 1 месяц

Сообщений: 2236

Симпатии: 616

emilsky, можно семпл на дир уз?
сэмпла не будет

Создавать темы 16-Окт-2012 01:52

[Профиль]  [ЛС] 

KoT

Стаж: 8 лет 7 месяцев

Сообщений: 100

Симпатии: 1

о супер

Создавать темы 16-Окт-2012 01:55

[Профиль]  [ЛС] 

PupuseG

Стаж: 6 лет 10 месяцев

Сообщений: 514

Симпатии: 64

emilsky, жаль.

Создавать темы 16-Окт-2012 01:57

[Профиль]  [ЛС] 

elkauther

Стаж: 6 лет 10 месяцев

Сообщений: 11

куда делись все сиды на раздаче ?

Создавать темы 16-Окт-2012 04:23

[Профиль]  [ЛС] 

Grock

Стаж: 8 лет 6 месяцев

Сообщений: 635

Симпатии: 114

Спасибо, давно ждем ), присоединяюсь!

Создавать темы 16-Окт-2012 06:40

[Профиль]  [ЛС] 

GRIMM

Стаж: 8 лет 7 месяцев

Сообщений: 811

Симпатии: 172

помогу с раздачей

Создавать темы 16-Окт-2012 08:03

[Профиль]  [ЛС] 

emilsky ®

Стаж: 9 лет 1 месяц

Сообщений: 2236

Симпатии: 616

помогу с раздачей
спасибо

Создавать темы 16-Окт-2012 08:03

[Профиль]  [ЛС] 

knyaz31337

Стаж: 8 лет 3 месяца

Сообщений: 393

Симпатии: 21

Наконец-то Валькин дед вернулся! Спасибо!

Создавать темы 16-Окт-2012 08:13

[Профиль]  [ЛС] 

soxa

Стаж: 6 лет 10 месяцев

Сообщений: 153

Симпатии: 23

ооооооооо рахматлар качондан шу кинони кутяпман колган серияларини ташаворинг админ

Создавать темы 16-Окт-2012 08:43

[Профиль]  [ЛС] 

dilshod5254

Стаж: 8 лет 4 месяца

Сообщений: 105

Симпатии: 14

emilsky, не ожидал так скоро. молоцом!

Создавать темы 16-Окт-2012 08:49

[Профиль]  [ЛС] 

dilshod5254

Стаж: 8 лет 4 месяца

Сообщений: 105

Симпатии: 14

ооооооооо рахматлар качондан шу кинони кутяпман колган серияларини ташаворинг админ
не пиши на узбекском языке а то получиш предупреждение
тут принято русский язык

Создавать темы 16-Окт-2012 08:51

[Профиль]  [ЛС] 

soxa

Стаж: 6 лет 10 месяцев

Сообщений: 153

Симпатии: 23

понял тебя братуха

Создавать темы 16-Окт-2012 10:08

[Профиль]  [ЛС] 
Показать сообщения:    
Ответить на тему

Текущее время: 18-Авг 17:46

Часовой пояс: UTC + 5



Вы не можете начинать темы
Вы не можете отвечать на сообщения
Вы не можете редактировать свои сообщения
Вы не можете удалять свои сообщения
Вы не можете голосовать в опросах
Вы не можете прикреплять файлы к сообщениям
Вы не можете скачивать файлы